Tags
Language
Tags

Zoot Sims - New Beat Bossa Nova, Vol. 1 & 2 (1962) {Colpix Japan Mini LP TOCJ-9604 rel 2004}

Posted By: ruskaval
Zoot Sims - New Beat Bossa Nova, Vol. 1 & 2 (1962) {Colpix Japan Mini LP TOCJ-9604 rel 2004}

Zoot Sims - New Beat Bossa Nova, Vol. 1 & 2 (1962) {Colpix Japan Mini LP TOCJ-9604 rel 2004}
EAC rip (secure mode) | FLAC (tracks)+CUE+LOG -> 423 Mb | MP3 @320 -> 148 Mb
Full Artwork @ 600 dpi (jpg) -> 88 Mb | 5% repair rar
© 1962, 2004 Colpix Records / Toshiba-EMI | TOCJ-9604 | Mini LP | 24bit remastering
Jazz / Latin Jazz / Bossa Nova / Cool / Saxophone

24bit digitally remastered reissue. Comes housed in a cardboard sleeve. This release compiles two wonderful LPs presenting Zoot Sims playing bossa nova songs, as well as jazz standards in a bossa nova mood arranged by Manny Albam and Al Cohn: New Beat Bossa Nova (Colpix SCP435), and its sequel, New Beat Bossa Nova Vol. 2 (Colpix SCP437). Recorded in 1962, these were among the first albums to combine bossa nova and jazz. Both LPs feature the outstanding guitarist Jim Hall as a soloist.
Zoot Sims - New Beat Bossa Nova, Vol. 1 & 2 (1962) {Colpix Japan Mini LP TOCJ-9604 rel 2004}

The "Bossa nova", translated to English, means "the new beat". In its faster tempo, it very closely resembles the samba. The slower beat is more like that of the rhumba. However, there is a distinct subtlety of rhythmic difference that separates the bossa nova from both the samba and rhumba. The most characteristic and distinguishing features of the bossa nova are rich melodic lines and an overall lightness of ease and expression.
The authentic bossa nova requires several, specific percussive instruments - all of wich are used on this recording. One of these is the beaded cabaso, wich is somewhat like a gourd, except that it is filled with seeds or beads and shook instead of scratched. It sounds just a shade lighter than maracas. Another is the tubos shaker, wich is a wooden tube, often made of bamboo, that is also filled with beads or pellets.
On this recording a regular set of drums is used, but the authenticity, the main attacks are light use of the snare and cymbals with definite patterns for the cow bell and claves. A triangle hit from the inside and the sound immediately deadned, is used on certain accents. This definite accentuation is another mark wuch characterizes the bossa nova from the samba, as the samba is know in Noth America…
From original liner notes (New Beat Bossa Nova, vol. 1)
Unsigned ; probably by producer Jack Lewis
Zoot Sims - New Beat Bossa Nova, Vol. 1 & 2 (1962) {Colpix Japan Mini LP TOCJ-9604 rel 2004}


PERSONNEL:

ZOOT SIMS, tenor sax on all tracks plus:

[1-8] New Beat Bossa Nova Vol. 1:
Spencer Sinatra (fl), Ron Odrich (fl, cl), Phil Woods (cl, as), Gene Quill (as, cl),
Jim Hall, Kenny Burrell (g), Art Davis (b), Sol Gubin (d), Ted Sommer, Willie Rodriguez (perc).
New York, August 28, 1962.

[9-18] New Beat Bossa Nova Vol. 2:
Spencer Sinatra, Ron Odrich, Jerry Sanfino, Phil Bodne (fl, cl),
Sol Schlinger (cl), Jim Hall, Barry Galbraith (g), Milt Hinton (b),
Willie Rodriguez, Sol Gubin, Tommy López, Ted Sommer (perc)
New York, November 1962.

Arrangements by MANNY ALBAM & AL COHN.
Original recordings produced by JACK LEWIS.


tracklist:
01 - Recado Bossa Nova Pt.1
02 - Recado Bossa Nova Pt.2
03 - Cano Canoe
04 - Contando A Orquestra
05 - Ciume
06 - Maria Ninguen
07 - Sem Saudades De Voce
08 - Barquinho De Papel
09 - Cancion De Bernardito (Bernie's Tune)
10 - Poquito Cantando
11 - Pies Danzantes (Tickle Toe)
12 - Camino Solitario (Lonesome Road)
13 - Samba Instantanea (Instant Samba)
14 - Llamaron El Viento Maria (They Call The Wind Maria)
15 - Querido Retorna A Mi (Lover Come Back To Me)
16 - Hijo De La Naturaleza (Nature Boy)
17 - Buscando La Luna (Reaching For The Moon)
18 - No Juegues Con El Amor (Don't Fool With Love)

Exact Audio Copy V1.1 from 23. June 2015

EAC extraction logfile from 1. April 2017, 0:43

Zoot Sims / New Beat Bossa Nova, Vol. 1 & 2

Used drive : TSSTcorpCDDVDW SE-208DB Adapter: 1 ID: 2

Read mode : Secure
Utilize accurate stream : Yes
Defeat audio cache : Yes
Make use of C2 pointers : No

Read offset correction : 6
Overread into Lead-In and Lead-Out : No
Fill up missing offset samples with silence : Yes
Delete leading and trailing silent blocks : No
Null samples used in CRC calculations : Yes
Used interface : Native Win32 interface for Win NT & 2000
Gap handling : Appended to previous track

Used output format : User Defined Encoder
Selected bitrate : 1024 kBit/s
Quality : High
Add ID3 tag : No
Command line compressor : C:\Program Files (x86)\FLAC Frontend\tools\flac.exe
Additional command line options : -8 -V -T "ARTIST=%artist%" -T "TITLE=%title%" -T "ALBUM=%albumtitle%" -T "DATE=%year%" -T "TRACKNUMBER=%tracknr%" -T "TOTALTRACKS=%numtracks%" -T "GENRE=%genre%" -T "ALBUMARTIST=%albumartist%" -T "ALBUM ARTIST=%albumartist%" -T "COMMENT=EAC Secure Mode, Test & Copy, AccurateRip, FLAC -8" %source%


TOC of the extracted CD

Track | Start | Length | Start sector | End sector
––––––––––––––––––––––––––––-
1 | 0:00.00 | 2:38.05 | 0 | 11854
2 | 2:38.05 | 3:00.05 | 11855 | 25359
3 | 5:38.10 | 5:39.00 | 25360 | 50784
4 | 11:17.10 | 4:10.47 | 50785 | 69581
5 | 15:27.57 | 4:15.38 | 69582 | 88744
6 | 19:43.20 | 2:40.02 | 88745 | 100746
7 | 22:23.22 | 6:04.35 | 100747 | 128081
8 | 28:27.57 | 2:55.58 | 128082 | 141264
9 | 31:23.40 | 3:02.27 | 141265 | 154941
10 | 34:25.67 | 2:34.30 | 154942 | 166521
11 | 37:00.22 | 2:41.33 | 166522 | 178629
12 | 39:41.55 | 4:24.27 | 178630 | 198456
13 | 44:06.07 | 2:28.60 | 198457 | 209616
14 | 46:34.67 | 2:59.43 | 209617 | 223084
15 | 49:34.35 | 5:04.30 | 223085 | 245914
16 | 54:38.65 | 3:06.00 | 245915 | 259864
17 | 57:44.65 | 2:54.40 | 259865 | 272954
18 | 60:39.30 | 3:19.32 | 272955 | 287911


Track 1

Filename D:\_EAC\Zoot Sims - New Beat Bossa Nova Vol. 1 & 2 (2004) [FLAC] {TOCJ-9604}\01 - Recado Bossa Nova Pt.1.wav

Pre-gap length 0:00:02.00

Peak level 99.7 %
Extraction speed 1.0 X
Track quality 100.0 %
Test CRC 2C0BDFC9
Copy CRC 2C0BDFC9
Accurately ripped (confidence 2) [CC6827BE] (AR v2)
Copy OK

Track 2

Filename D:\_EAC\Zoot Sims - New Beat Bossa Nova Vol. 1 & 2 (2004) [FLAC] {TOCJ-9604}\02 - Recado Bossa Nova Pt.2.wav

Peak level 99.7 %
Extraction speed 1.1 X
Track quality 100.0 %
Test CRC 17195694
Copy CRC 17195694
Accurately ripped (confidence 2) [C2E6C4F8] (AR v2)
Copy OK

Track 3

Filename D:\_EAC\Zoot Sims - New Beat Bossa Nova Vol. 1 & 2 (2004) [FLAC] {TOCJ-9604}\03 - Cano Canoe.wav

Pre-gap length 0:00:00.01

Peak level 99.7 %
Extraction speed 1.2 X
Track quality 99.9 %
Test CRC 86962577
Copy CRC 86962577
Accurately ripped (confidence 2) [7C4519D6] (AR v2)
Copy OK

Track 4

Filename D:\_EAC\Zoot Sims - New Beat Bossa Nova Vol. 1 & 2 (2004) [FLAC] {TOCJ-9604}\04 - Contando A Orquestra.wav

Peak level 99.7 %
Extraction speed 1.2 X
Track quality 99.9 %
Test CRC 7F4330CE
Copy CRC 7F4330CE
Accurately ripped (confidence 2) [11FCD9CE] (AR v2)
Copy OK

Track 5

Filename D:\_EAC\Zoot Sims - New Beat Bossa Nova Vol. 1 & 2 (2004) [FLAC] {TOCJ-9604}\05 - Ciume.wav

Peak level 99.7 %
Extraction speed 1.4 X
Track quality 100.0 %
Test CRC 21EBA68E
Copy CRC 21EBA68E
Accurately ripped (confidence 2) [0485A071] (AR v2)
Copy OK

Track 6

Filename D:\_EAC\Zoot Sims - New Beat Bossa Nova Vol. 1 & 2 (2004) [FLAC] {TOCJ-9604}\06 - Maria Ninguen.wav

Peak level 99.7 %
Extraction speed 1.1 X
Track quality 99.9 %
Test CRC C0771A94
Copy CRC C0771A94
Accurately ripped (confidence 2) [3E417EA0] (AR v2)
Copy OK

Track 7

Filename D:\_EAC\Zoot Sims - New Beat Bossa Nova Vol. 1 & 2 (2004) [FLAC] {TOCJ-9604}\07 - Sem Saudades De Voce.wav

Peak level 99.7 %
Extraction speed 1.6 X
Track quality 100.0 %
Test CRC A1B8E6B6
Copy CRC A1B8E6B6
Accurately ripped (confidence 2) [1EDFF30C] (AR v2)
Copy OK

Track 8

Filename D:\_EAC\Zoot Sims - New Beat Bossa Nova Vol. 1 & 2 (2004) [FLAC] {TOCJ-9604}\08 - Barquinho De Papel.wav

Peak level 99.7 %
Extraction speed 1.5 X
Track quality 100.0 %
Test CRC 4B5E5D1D
Copy CRC 4B5E5D1D
Accurately ripped (confidence 2) [B58443AB] (AR v2)
Copy OK

Track 9

Filename D:\_EAC\Zoot Sims - New Beat Bossa Nova Vol. 1 & 2 (2004) [FLAC] {TOCJ-9604}\09 - Cancion De Bernardito (Bernie's Tune).wav

Peak level 99.7 %
Extraction speed 1.5 X
Track quality 100.0 %
Test CRC 9A80F75F
Copy CRC 9A80F75F
Accurately ripped (confidence 2) [7FCB0232] (AR v2)
Copy OK

Track 10

Filename D:\_EAC\Zoot Sims - New Beat Bossa Nova Vol. 1 & 2 (2004) [FLAC] {TOCJ-9604}\10 - Poquito Cantando.wav

Peak level 99.7 %
Extraction speed 1.5 X
Track quality 100.0 %
Test CRC 202A8DA5
Copy CRC 202A8DA5
Accurately ripped (confidence 2) [58866117] (AR v2)
Copy OK

Track 11

Filename D:\_EAC\Zoot Sims - New Beat Bossa Nova Vol. 1 & 2 (2004) [FLAC] {TOCJ-9604}\11 - Pies Danzantes (Tickle Toe).wav

Peak level 99.7 %
Extraction speed 1.5 X
Track quality 100.0 %
Test CRC 16D11A06
Copy CRC 16D11A06
Accurately ripped (confidence 2) [CA157D0E] (AR v2)
Copy OK

Track 12

Filename D:\_EAC\Zoot Sims - New Beat Bossa Nova Vol. 1 & 2 (2004) [FLAC] {TOCJ-9604}\12 - Camino Solitario (Lonesome Road).wav

Peak level 99.7 %
Extraction speed 1.7 X
Track quality 100.0 %
Test CRC 85F99CBA
Copy CRC 85F99CBA
Accurately ripped (confidence 2) [1FB51013] (AR v2)
Copy OK

Track 13

Filename D:\_EAC\Zoot Sims - New Beat Bossa Nova Vol. 1 & 2 (2004) [FLAC] {TOCJ-9604}\13 - Samba Instantanea (Instant Samba).wav

Peak level 99.7 %
Extraction speed 1.6 X
Track quality 100.0 %
Test CRC 2B96543E
Copy CRC 2B96543E
Accurately ripped (confidence 2) [75D4D71D] (AR v2)
Copy OK

Track 14

Filename D:\_EAC\Zoot Sims - New Beat Bossa Nova Vol. 1 & 2 (2004) [FLAC] {TOCJ-9604}\14 - Llamaron El Viento Maria (They Call The Wind Maria).wav

Peak level 99.7 %
Extraction speed 1.7 X
Track quality 100.0 %
Test CRC 9BF000D4
Copy CRC 9BF000D4
Accurately ripped (confidence 2) [2C51D95A] (AR v2)
Copy OK

Track 15

Filename D:\_EAC\Zoot Sims - New Beat Bossa Nova Vol. 1 & 2 (2004) [FLAC] {TOCJ-9604}\15 - Querido Retorna A Mi (Lover Come Back To Me).wav

Peak level 99.7 %
Extraction speed 1.8 X
Track quality 100.0 %
Test CRC 05450746
Copy CRC 05450746
Accurately ripped (confidence 2) [C4536E9C] (AR v2)
Copy OK

Track 16

Filename D:\_EAC\Zoot Sims - New Beat Bossa Nova Vol. 1 & 2 (2004) [FLAC] {TOCJ-9604}\16 - Hijo De La Naturaleza (Nature Boy).wav

Peak level 99.7 %
Extraction speed 1.8 X
Track quality 100.0 %
Test CRC D88453CF
Copy CRC D88453CF
Accurately ripped (confidence 2) [F80BDF64] (AR v2)
Copy OK

Track 17

Filename D:\_EAC\Zoot Sims - New Beat Bossa Nova Vol. 1 & 2 (2004) [FLAC] {TOCJ-9604}\17 - Buscando La Luna (Reaching For The Moon).wav

Peak level 99.7 %
Extraction speed 1.7 X
Track quality 100.0 %
Test CRC ABD8AE47
Copy CRC ABD8AE47
Accurately ripped (confidence 2) [0DBFC25A] (AR v2)
Copy OK

Track 18

Filename D:\_EAC\Zoot Sims - New Beat Bossa Nova Vol. 1 & 2 (2004) [FLAC] {TOCJ-9604}\18 - No Juegues Con El Amor (Don't Fool With Love).wav

Peak level 99.7 %
Extraction speed 1.7 X
Track quality 100.0 %
Test CRC B3043CEA
Copy CRC B3043CEA
Accurately ripped (confidence 2) [BD15D462] (AR v2)
Copy OK


All tracks accurately ripped

No errors occurred

End of status report

==== Log checksum C688BB2477AC27D54E96D49004FBCEAE3119AD70DF8AF410F04121CB7A932FB4 ====


Zoot Sims - New Beat Bossa Nova, Vol. 1 & 2 (1962) {Colpix Japan Mini LP TOCJ-9604 rel 2004}

Zoot Sims - New Beat Bossa Nova, Vol. 1 & 2 (1962) {Colpix Japan Mini LP TOCJ-9604 rel 2004}



===