Subcategories

Zoot Sims - New Beat Bossa Nova, Vol 2 (1962) {2017 Japan SHM-CD Jazz Masters Collection 1200 Series WPCR-29227}

Posted By: ruskaval
Zoot Sims - New Beat Bossa Nova, Vol 2 (1962) {2017 Japan SHM-CD Jazz Masters Collection 1200 Series WPCR-29227}

Zoot Sims - New Beat Bossa Nova, Vol 2 (1962) {2017 Japan SHM-CD Jazz Masters Collection 1200 Series WPCR-29227}
EAC rip (secure mode) | FLAC (tracks)+CUE+LOG -> 238 Mb | MP3 @320 -> 76 Mb
Full Artwork @ 600 dpi (jpg) -> 80 Mb | 5% repair rar | 24bit remaster
© 1962, 2017 Colpix Records / Parlophone / Warner Music Japan | WPCR-29227 / LP Colpix CP437
Jazz / Latin Jazz / Bossa Nova / Cool / Bop / Saxophone

Reissue with SHM-CD format and the latest 24bit remastering. Comes with a mini-description. An overlooked chapter in American bossa jazz of the 60s – recordings that weren't nearly as well-circulated as the Stan Getz bossa nova albums on Verve, but which have an equally special sort of sparkle! The arrangements here are by Manny Albam and Al Cohn – who both bring an earlier sense of large jazz charts into play with the tighter rhythms of the bossa – at a level that makes things explode nicely with a sense of color, while still keeping the groove light overall!

Zoot Sims sounds great in the setting – which opens up with that great mouthy sound he brought to tenor – a voice that's nicely earthy at times, but which still has the right lyricism to match the music. Other players include a quartet of flutes, with Phil Bodner – plus Jim Hall and Barry Galbraith on guitars, and Milt Hinton on bass.
Zoot Sims - New Beat Bossa Nova, Vol 2 (1962) {2017 Japan SHM-CD Jazz Masters Collection 1200 Series WPCR-29227}


Personnel
Zoot Sims - tenor sax
Spencer Sinatra, Ron Odrich, Jerry Sanfino, Phil Bodne - flute & clarinet
Sol Schlinger - clarinet
Jim Hall - guitar
Barry Galbraith - guitar
Milt Hinton - bass
Willie Rodriguez, Sol Gubin, Tommy Lуpez, Ted Sommer - percussin

Recorded in New York ; November 1962

Track Listing
01 - Cancion de Bernardito (Bernie's Tune)
02 - Poquito Cantando
03 - Piez Danzantes (Tickle Toe)
04 - Camino Solitario (Lonesome Road)
05 - Samba Instantanea (Instant Samba)
06 - Llamaron El Viento Maria (They Call The Wind Maria)
07 - Querido Retorna a Mi (Lover Come Back To Me)
08 - Hijo de la Naturaleza (Nature Boy)
09 - Buscando la Luna (Reaching For The Moon)
10 - No Juegues con El Amor (Don't Fool With Love)

Exact Audio Copy V1.3 from 2. September 2016

EAC extraction logfile from 8. June 2018, 13:38

Zoot Sims / New Beat Bossa Nova, Vol 2

Used drive : ATAPI iHAS122 F Adapter: 1 ID: 2

Read mode : Secure
Utilize accurate stream : Yes
Defeat audio cache : Yes
Make use of C2 pointers : No

Read offset correction : 6
Overread into Lead-In and Lead-Out : No
Fill up missing offset samples with silence : Yes
Delete leading and trailing silent blocks : No
Null samples used in CRC calculations : Yes
Used interface : Native Win32 interface for Win NT & 2000
Gap handling : Appended to previous track

Used output format : User Defined Encoder
Selected bitrate : 1024 kBit/s
Quality : High
Add ID3 tag : No
Command line compressor : C:\Program Files (x86)\Exact Audio Copy_v1.3\Flac\flac.exe
Additional command line options : -8 -V -T "ARTIST=%artist%" -T "TITLE=%title%" -T "ALBUM=%albumtitle%" -T "DATE=%year%" -T "TRACKNUMBER=%tracknr%" -T "TOTALTRACKS=%numtracks%" -T "GENRE=%genre%" -T "ALBUMARTIST=%albumartist%" -T "ALBUM ARTIST=%albumartist%" -T "COMMENT=EAC Secure Mode, Test & Copy, AccurateRip, FLAC -8" %source%


TOC of the extracted CD

Track | Start | Length | Start sector | End sector
––––––––––––––––––––––––––––-
1 | 0:00.00 | 3:02.63 | 0 | 13712
2 | 3:02.63 | 2:34.31 | 13713 | 25293
3 | 5:37.19 | 2:41.32 | 25294 | 37400
4 | 8:18.51 | 4:24.25 | 37401 | 57225
5 | 12:43.01 | 2:28.61 | 57226 | 68386
6 | 15:11.62 | 2:59.40 | 68387 | 81851
7 | 18:11.27 | 5:04.28 | 81852 | 104679
8 | 23:15.55 | 3:05.74 | 104680 | 118628
9 | 26:21.54 | 2:54.39 | 118629 | 131717
10 | 29:16.18 | 3:19.50 | 131718 | 146692


Track 1

Filename D:\_EAC\Zoot Sims - New Beat Bossa Nova, Vol 2 (1962) [FLAC] {WPCR-29227}\01 - Cancion de Bernardito (Bernie's Tune).wav

Pre-gap length 0:00:02.00

Peak level 100.0 %
Extraction speed 4.5 X
Track quality 100.0 %
Test CRC F91ECC33
Copy CRC F91ECC33
Track not present in AccurateRip database
Copy OK

Track 2

Filename D:\_EAC\Zoot Sims - New Beat Bossa Nova, Vol 2 (1962) [FLAC] {WPCR-29227}\02 - Poquito Cantando.wav

Peak level 100.0 %
Extraction speed 4.7 X
Track quality 100.0 %
Test CRC C629D7BF
Copy CRC C629D7BF
Track not present in AccurateRip database
Copy OK

Track 3

Filename D:\_EAC\Zoot Sims - New Beat Bossa Nova, Vol 2 (1962) [FLAC] {WPCR-29227}\03 - Piez Danzantes (Tickle Toe).wav

Peak level 100.0 %
Extraction speed 4.9 X
Track quality 100.0 %
Test CRC 84815977
Copy CRC 84815977
Track not present in AccurateRip database
Copy OK

Track 4

Filename D:\_EAC\Zoot Sims - New Beat Bossa Nova, Vol 2 (1962) [FLAC] {WPCR-29227}\04 - Camino Solitario (Lonesome Road).wav

Peak level 100.0 %
Extraction speed 5.6 X
Track quality 100.0 %
Test CRC 9DB40D8B
Copy CRC 9DB40D8B
Track not present in AccurateRip database
Copy OK

Track 5

Filename D:\_EAC\Zoot Sims - New Beat Bossa Nova, Vol 2 (1962) [FLAC] {WPCR-29227}\05 - Samba Instantanea (Instant Samba).wav

Peak level 100.0 %
Extraction speed 5.5 X
Track quality 100.0 %
Test CRC A10484FA
Copy CRC A10484FA
Track not present in AccurateRip database
Copy OK

Track 6

Filename D:\_EAC\Zoot Sims - New Beat Bossa Nova, Vol 2 (1962) [FLAC] {WPCR-29227}\06 - Llamaron El Viento Maria (They Call The Wind Maria).wav

Peak level 100.0 %
Extraction speed 6.0 X
Track quality 100.0 %
Test CRC 058D7603
Copy CRC 058D7603
Track not present in AccurateRip database
Copy OK

Track 7

Filename D:\_EAC\Zoot Sims - New Beat Bossa Nova, Vol 2 (1962) [FLAC] {WPCR-29227}\07 - Querido Retorna a Mi (Lover Come Back To Me).wav

Peak level 100.0 %
Extraction speed 6.8 X
Track quality 100.0 %
Test CRC 9E181EF9
Copy CRC 9E181EF9
Track not present in AccurateRip database
Copy OK

Track 8

Filename D:\_EAC\Zoot Sims - New Beat Bossa Nova, Vol 2 (1962) [FLAC] {WPCR-29227}\08 - Hijo de la Naturaleza (Nature Boy).wav

Peak level 100.0 %
Extraction speed 6.6 X
Track quality 100.0 %
Test CRC BF153EA9
Copy CRC BF153EA9
Track not present in AccurateRip database
Copy OK

Track 9

Filename D:\_EAC\Zoot Sims - New Beat Bossa Nova, Vol 2 (1962) [FLAC] {WPCR-29227}\09 - Buscando la Luna (Reaching For The Moon).wav

Peak level 100.0 %
Extraction speed 6.8 X
Track quality 100.0 %
Test CRC 4C03F287
Copy CRC 4C03F287
Track not present in AccurateRip database
Copy OK

Track 10

Filename D:\_EAC\Zoot Sims - New Beat Bossa Nova, Vol 2 (1962) [FLAC] {WPCR-29227}\10 - No Juegues con El Amor (Don't Fool With Love).wav

Peak level 100.0 %
Extraction speed 7.1 X
Track quality 100.0 %
Test CRC 78D2C4BE
Copy CRC 78D2C4BE
Track not present in AccurateRip database
Copy OK


None of the tracks are present in the AccurateRip database

No errors occurred

End of status report

–– CUETools DB Plugin V2.1.6

[CTDB TOCID: OyNua66RnNFI5H27RnWFbO7FrfI-] found
Submit result: OyNua66RnNFI5H27RnWFbO7FrfI- has been confirmed
Track | CTDB Status
1 | (5/5) Accurately ripped
2 | (5/5) Accurately ripped
3 | (5/5) Accurately ripped
4 | (5/5) Accurately ripped
5 | (5/5) Accurately ripped
6 | (5/5) Accurately ripped
7 | (5/5) Accurately ripped
8 | (5/5) Accurately ripped
9 | (5/5) Accurately ripped
10 | (5/5) Accurately ripped


==== Log checksum 29E30A14C601A8DD5F31CFCBA437311FA6226034C151FE3F0F411D1614DABDCB ====


Zoot Sims - New Beat Bossa Nova, Vol 2 (1962) {2017 Japan SHM-CD Jazz Masters Collection 1200 Series WPCR-29227}

Zoot Sims - New Beat Bossa Nova, Vol 2 (1962) {2017 Japan SHM-CD Jazz Masters Collection 1200 Series WPCR-29227}


see more Japan SHM-CD Jazz Masters Collection 1200 Series…


===