Subcategories

Zoot Sims - Waiting Game (1966) {2015 Japan Impulse! Classics 50 Series UCCI-9272}

Posted By: ruskaval
Zoot Sims - Waiting Game (1966) {2015 Japan Impulse! Classics 50 Series UCCI-9272}

Zoot Sims - Waiting Game (1966) {2015 Japan Impulse! Classics 50 Series UCCI-9272}
EAC rip (secure mode) | FLAC (tracks)+CUE+LOG -> 265 Mb | MP3 @320 -> 104 Mb
Full Artwork @ 600 dpi (png) -> 297 Mb | 5% repair rar | 24-bit remaster
© 1966, 2015 Impulse! / Verve / Universal Music Japan | UCCI-9272 | LP AS-9131
Jazz / Bop / Cool / Bebop / Saxophone

A rare gem from Zoot Sims – very different than any of his other albums! The session features Zoot blowing over large backings arranged and conducted by Gary McFarland, a bit in the older Verve "with strings" mode, but also sparkling with a lot of the newer elements that McFarland was bringing to his work at the time. The approach is both light and lush at the same time – and Zoot's got a tone and approach that we've never heard on any other record, making the whole album an incredible treat that we'd rank up there with Stan Getz's experiments of the same type from the 60s. Titles include "I Wish I Knew", "Does The Sun Really Shine On The Moon", "Once We Loved", "Old Folks", "September Song", "Stella By Starlight", and "Once I Could Have Loved".
Zoot Sims - Waiting Game (1966) {2015 Japan Impulse! Classics 50 Series UCCI-9272}


Personnel:
Zoot Sims - tenor saxophone, vocals
with orchestra include strings,
David Shell - harp
Gary McFarland – arranger
Jack Parnell - conductor

Recorded in London, England on November 28, November 30, 1966

Zoot Sims - Waiting Game (1966) {2015 Japan Impulse! Classics 50 Series UCCI-9272}


tracklist:
01 - Old Folks
02 - I Wish I Knew
03 - Once We Loved
04 - It's A Blue World
05 - September Song
06 - Over The Rainbow
07 - Stella By Starlight
08 - One I Could Have Loved (Theme From ''13'')
09 - You Go To My Head
10 - Does The Sun Really Shine On The Moon

Exact Audio Copy V1.1 from 23. June 2015

EAC extraction logfile from 2. January 2016, 20:03

Zoot Sims / Waiting Game

Used drive : TSSTcorpCDDVDW SE-208DB Adapter: 7 ID: 0

Read mode : Secure
Utilize accurate stream : Yes
Defeat audio cache : Yes
Make use of C2 pointers : No

Read offset correction : 6
Overread into Lead-In and Lead-Out : No
Fill up missing offset samples with silence : Yes
Delete leading and trailing silent blocks : No
Null samples used in CRC calculations : Yes
Used interface : Installed external ASPI interface
Gap handling : Appended to previous track

Used output format : User Defined Encoder
Selected bitrate : 1024 kBit/s
Quality : High
Add ID3 tag : No
Command line compressor : C:\Program Files (x86)\FLAC Frontend\tools\flac.exe
Additional command line options : -8 -V -T "ARTIST=%artist%" -T "TITLE=%title%" -T "ALBUM=%albumtitle%" -T "DATE=%year%" -T "TRACKNUMBER=%tracknr%" -T "TOTALTRACKS=%numtracks%" -T "GENRE=%genre%" -T "ALBUMARTIST=%albumartist%" -T "ALBUM ARTIST=%albumartist%" -T "COMMENT=EAC Secure Mode, Test & Copy, AccurateRip, FLAC -8" %source%


TOC of the extracted CD

Track | Start | Length | Start sector | End sector
––––––––––––––––––––––––––––-
1 | 0:00.00 | 4:54.55 | 0 | 22104
2 | 4:54.55 | 4:13.62 | 22105 | 41141
3 | 9:08.42 | 2:48.35 | 41142 | 53776
4 | 11:57.02 | 3:49.33 | 53777 | 70984
5 | 15:46.35 | 4:50.60 | 70985 | 92794
6 | 20:37.20 | 5:05.57 | 92795 | 115726
7 | 25:43.02 | 4:40.18 | 115727 | 136744
8 | 30:23.20 | 3:16.17 | 136745 | 151461
9 | 33:39.37 | 4:08.10 | 151462 | 170071
10 | 37:47.47 | 5:45.63 | 170072 | 196009


Track 1

Filename M:\_EAC\Zoot Sims - Waiting Game (1966) [FLAC] {2015 Japan Impulse! Classics 50 Series}\01 - Old Folks.wav

Pre-gap length 0:00:02.00

Peak level 95.6 %
Extraction speed 1.0 X
Track quality 100.0 %
Test CRC C7D0F946
Copy CRC C7D0F946
Cannot be verified as accurate (confidence 2) [756D658E], AccurateRip returned [57AFFFFC] (AR v2)
Copy OK

Track 2

Filename M:\_EAC\Zoot Sims - Waiting Game (1966) [FLAC] {2015 Japan Impulse! Classics 50 Series}\02 - I Wish I Knew.wav

Pre-gap length 0:00:03.02

Peak level 98.8 %
Extraction speed 1.1 X
Track quality 100.0 %
Test CRC 6E08F387
Copy CRC 6E08F387
Cannot be verified as accurate (confidence 2) [097F87FF], AccurateRip returned [F9435EDB] (AR v2)
Copy OK

Track 3

Filename M:\_EAC\Zoot Sims - Waiting Game (1966) [FLAC] {2015 Japan Impulse! Classics 50 Series}\03 - Once We Loved.wav

Pre-gap length 0:00:03.14

Peak level 85.2 %
Extraction speed 1.1 X
Track quality 100.0 %
Test CRC 4ABDA446
Copy CRC 4ABDA446
Cannot be verified as accurate (confidence 2) [B2B893BB], AccurateRip returned [E8BCBB9B] (AR v2)
Copy OK

Track 4

Filename M:\_EAC\Zoot Sims - Waiting Game (1966) [FLAC] {2015 Japan Impulse! Classics 50 Series}\04 - It's A Blue World.wav

Pre-gap length 0:00:02.26

Peak level 87.8 %
Extraction speed 1.2 X
Track quality 100.0 %
Test CRC 5CC0586F
Copy CRC 5CC0586F
Cannot be verified as accurate (confidence 2) [9982F26F], AccurateRip returned [113AE9E5] (AR v2)
Copy OK

Track 5

Filename M:\_EAC\Zoot Sims - Waiting Game (1966) [FLAC] {2015 Japan Impulse! Classics 50 Series}\05 - September Song.wav

Pre-gap length 0:00:02.24

Peak level 88.3 %
Extraction speed 1.2 X
Track quality 99.9 %
Test CRC B71FF843
Copy CRC B71FF843
Cannot be verified as accurate (confidence 2) [4BFF561E], AccurateRip returned [E360B447] (AR v2)
Copy OK

Track 6

Filename M:\_EAC\Zoot Sims - Waiting Game (1966) [FLAC] {2015 Japan Impulse! Classics 50 Series}\06 - Over The Rainbow.wav

Pre-gap length 0:00:02.59

Peak level 94.2 %
Extraction speed 1.3 X
Track quality 99.9 %
Test CRC 0E2AEE59
Copy CRC 0E2AEE59
Cannot be verified as accurate (confidence 2) [9C65690C], AccurateRip returned [796844FD] (AR v2)
Copy OK

Track 7

Filename M:\_EAC\Zoot Sims - Waiting Game (1966) [FLAC] {2015 Japan Impulse! Classics 50 Series}\07 - Stella By Starlight.wav

Pre-gap length 0:00:03.11

Peak level 84.1 %
Extraction speed 1.5 X
Track quality 100.0 %
Test CRC 3F5B4CF0
Copy CRC 3F5B4CF0
Cannot be verified as accurate (confidence 2) [9532ABC8], AccurateRip returned [F2D95F75] (AR v2)
Copy OK

Track 8

Filename M:\_EAC\Zoot Sims - Waiting Game (1966) [FLAC] {2015 Japan Impulse! Classics 50 Series}\08 - One I Could Have Loved (Theme From ''13'').wav

Pre-gap length 0:00:04.19

Peak level 84.1 %
Extraction speed 1.2 X
Track quality 99.9 %
Test CRC 19DE3D83
Copy CRC 19DE3D83
Cannot be verified as accurate (confidence 2) [A7F60663], AccurateRip returned [C7FCF014] (AR v2)
Copy OK

Track 9

Filename M:\_EAC\Zoot Sims - Waiting Game (1966) [FLAC] {2015 Japan Impulse! Classics 50 Series}\09 - You Go To My Head.wav

Pre-gap length 0:00:03.19

Peak level 79.7 %
Extraction speed 1.6 X
Track quality 100.0 %
Test CRC 6F2F140E
Copy CRC 6F2F140E
Cannot be verified as accurate (confidence 2) [E73390B3], AccurateRip returned [D6DF8954] (AR v2)
Copy OK

Track 10

Filename M:\_EAC\Zoot Sims - Waiting Game (1966) [FLAC] {2015 Japan Impulse! Classics 50 Series}\10 - Does The Sun Really Shine On The Moon.wav

Pre-gap length 0:00:03.41

Peak level 87.7 %
Extraction speed 1.7 X
Track quality 100.0 %
Test CRC B51E9281
Copy CRC B51E9281
Cannot be verified as accurate (confidence 2) [EB3A012D], AccurateRip returned [0BF81F34] (AR v2)
Copy OK


No tracks could be verified as accurate
You may have a different pressing from the one(s) in the database

No errors occurred

End of status report

==== Log checksum 433488127201358F7E69A8448B9F9118AF811640D3CDE9A86FE12DA408B4E935 ====


Zoot Sims - Waiting Game (1966) {2015 Japan Impulse! Classics 50 Series UCCI-9272}

Zoot Sims - Waiting Game (1966) {2015 Japan Impulse! Classics 50 Series UCCI-9272}


see more Japan Impulse! Classics 50 Series…


===