Tags
Language
Tags

Ella Fitzgerald - Hello Love (1959) {2004 Verve Music Group} **[RE-UP]**

Posted By: TestTickles
Ella Fitzgerald - Hello Love (1959) {2004 Verve Music Group} **[RE-UP]**

Ella Fitzgerald - Hello Love (1959) {2004 Verve Music Group}
EAC Rip | FLAC with CUE and log | scans | 278 mb
MP3 CBR 320kbps | RAR | 109 mb
Genre: jazz, vocal jazz, pop

Hello Love is the 1959 album by American jazz singer Ella Fitzgerald. This is a CD released by Verve Music Group on 28 September 2004, remastered by Hideaki Nishimura.

A fine gem among the diamonds of Ella Fitzgerald's late-'50s period with Verve, Hello Love may not have approached the quality of her songbooks, but it did allow her to sing a few fine songs she'd missed the first time around. (And although none of the songbook giants are represented, the material is hardly second-rate.) Wrapped in the strings
of Frank DeVol's orchestra, Fitzgerald is a bewitching presence singing these dreamy standards: "Tenderly," "You Go to My Head," "Willow Weep for Me," and "Stairway to the Stars." DeVol's charts are dynamic as well, allowing space for expressive players such as trumpeters Harry "Sweets" Edison and Pete Candoli or tenor Ben Webster. A few of the titles are solo versions of songs she had recently sung on her Louis Armstrong duets.

Ella Fitzgerald - Hello Love (1959) {2004 Verve Music Group} **[RE-UP]**

01. You Go To My Head
02. Willow Weep For Me
03. I'm Thru With Love
04. Spring Will Be A Little Late This Year
05. Everything Happens To Me
06. Lost In A Fog
07. I've Grown Accustomed To His Face
08. I'll Never Be The Same
09. So Rare
10. Tenderly
11. Stairway To The Stars
12. Moonlight In Vermont

–-
Tracks 1-4 and 7
Ella Fitzgerald-vocal
with Frank DeVol's Orchestra
DeVol-arranger, conductor
others unknown
Recorded March 25, 1959 at Radio Recorders, Hollywood

Tracks 5, 6, 8, and 9
Ella Fitzgerald-vocal

with Frank DeVol's Orchestra
DeVol-arranger, conductor
others unknown
Recorded October 28, 1957 at Capitol Studios, Hollywood

Tracks 10-12
Ella Fitzgerald-vocal

with Frank DeVol's Orchestra
Pete Candoli-trumpet
Harry "Sweets" Edison-trumpet
Ray Linn-trumpet
George Werth-trumpet
Milt Bernhart-trombone
George Roberts-trombone
Lloyd Ulyate-trombone
Martin Ruderman-flute
Sylvia Ruderman-flute
Clint Neagley-alto saxophone
Ben Webster-tenor saxophone
Bert Gassman-oboe
Arnold Koblentz-oboe
Gordon Schoneberg-oboe
Norman Herzberg-bassoon
Kenneth Lowman-bassoon
Jack Marsh-bassoon
Skeets Herfurt-woodwinds
Joseph Koch-woodwinds
Ernest Romersa-woodwinds
Sam Albert-violin
Israel Baker-violin
Robert Barene-violin
Harold Dicterow-violin
Sam Freed Jr.-violin
David Frisna-violin
Benny Gill-violin
Mort Herbert-violin
Henry Hill-violin
Anatol Kaminsky-violin
Dan Lube-violin
Alfred Lustgarden-violin
Bill Miller-violin
Lou Raderman-violin
Ambrose Russo-violin
Albert Saparoff-violin
Jan Hlinka-viola
Virginia Majewski-viola
G.R. Menhennick-viola
Robert Ostrowsky-viola
Sanford Schonback-viola
Milton Thomas-viola
Justin Di Tullio-cello
Armand Kaproff-cello
Raphael Kramer-cello
Nino Russo-cello
Dorothy Remsen-harp
Arnold Ross-piano
Barney Kessell-guitar
Abe Luboff-bass
Joe Mondragon-bass
Philip Stephens-bass
Milt Holland-percussion
Alvin Stoller-drums

DeVol-arranger, conductor
Recorded July 24, 1957 at Capitol Studios, Hollywood

Produced by Norman Granz
CD mastered by Hideaki Nishimura at Universal Music Mastering Studio-Tokyo

EAC extraction logfile from 10. September 2006, 21:22 for CD
Ella Fitzgerald / Hello Love

Used drive : LITE-ON DVDRW SOHW-1633S Adapter: 0 ID: 0
Read mode : Secure with NO C2, accurate stream, disable cache
Read offset correction : 12
Overread into Lead-In and Lead-Out : No

Used output format : Internal WAV Routines
44.100 Hz; 16 Bit; Stereo

Other options :
Fill up missing offset samples with silence : Yes
Delete leading and trailing silent blocks : No
Installed external ASPI interface


Track 1
Filename D:\FLAC\Ella Fitzgerald - Hello Love (1959) [FLAC] {2004 Verve Music Group}\01 - You Go To My Head.wav

Pre-gap length 0:00:02.00

Peak level 87.2 %
Track quality 100.0 %
Test CRC A16F8E37
Copy CRC A16F8E37
Copy OK

Track 2
Filename D:\FLAC\Ella Fitzgerald - Hello Love (1959) [FLAC] {2004 Verve Music Group}\02 - Willow Weep For Me.wav

Pre-gap length 0:00:03.29

Peak level 91.8 %
Track quality 100.0 %
Test CRC C7B54388
Copy CRC C7B54388
Copy OK

Track 3
Filename D:\FLAC\Ella Fitzgerald - Hello Love (1959) [FLAC] {2004 Verve Music Group}\03 - I'm Thru With Love.wav

Pre-gap length 0:00:03.09

Peak level 76.9 %
Track quality 99.9 %
Test CRC 21BE2952
Copy CRC 21BE2952
Copy OK

Track 4
Filename D:\FLAC\Ella Fitzgerald - Hello Love (1959) [FLAC] {2004 Verve Music Group}\04 - Spring Will Be A Little Late This Year.wav

Pre-gap length 0:00:02.54

Peak level 87.5 %
Track quality 100.0 %
Test CRC CE237666
Copy CRC CE237666
Copy OK

Track 5
Filename D:\FLAC\Ella Fitzgerald - Hello Love (1959) [FLAC] {2004 Verve Music Group}\05 - Everything Happens To Me.wav

Pre-gap length 0:00:03.02

Peak level 71.7 %
Track quality 100.0 %
Test CRC 2CF02111
Copy CRC 2CF02111
Copy OK

Track 6
Filename D:\FLAC\Ella Fitzgerald - Hello Love (1959) [FLAC] {2004 Verve Music Group}\06 - Lost In A Fog.wav

Pre-gap length 0:00:03.28

Peak level 65.7 %
Track quality 100.0 %
Test CRC 6B84257E
Copy CRC 6B84257E
Copy OK

Track 7
Filename D:\FLAC\Ella Fitzgerald - Hello Love (1959) [FLAC] {2004 Verve Music Group}\07 - I've Grown Accustomed To His Face.wav

Pre-gap length 0:00:03.84

Peak level 80.5 %
Track quality 100.0 %
Test CRC E6FA7D79
Copy CRC E6FA7D79
Copy OK

Track 8
Filename D:\FLAC\Ella Fitzgerald - Hello Love (1959) [FLAC] {2004 Verve Music Group}\08 - I'll Never Be The Same.wav

Pre-gap length 0:00:02.60

Peak level 71.1 %
Track quality 100.0 %
Test CRC 434F8A2F
Copy CRC 434F8A2F
Copy OK

Track 9
Filename D:\FLAC\Ella Fitzgerald - Hello Love (1959) [FLAC] {2004 Verve Music Group}\09 - So Rare.wav

Pre-gap length 0:00:02.92

Peak level 68.1 %
Track quality 100.0 %
Test CRC 89E42B18
Copy CRC 89E42B18
Copy OK

Track 10
Filename D:\FLAC\Ella Fitzgerald - Hello Love (1959) [FLAC] {2004 Verve Music Group}\10 - Tenderly.wav

Pre-gap length 0:00:02.73

Peak level 75.6 %
Track quality 100.0 %
Test CRC AB07D20A
Copy CRC AB07D20A
Copy OK

Track 11
Filename D:\FLAC\Ella Fitzgerald - Hello Love (1959) [FLAC] {2004 Verve Music Group}\11 - Stairway To The Stars.wav

Pre-gap length 0:00:02.97

Peak level 74.7 %
Track quality 100.0 %
Test CRC 0671634B
Copy CRC 0671634B
Copy OK

Track 12
Filename D:\FLAC\Ella Fitzgerald - Hello Love (1959) [FLAC] {2004 Verve Music Group}\12 - Moonlight In Vermont.wav

Pre-gap length 0:00:02.57

Peak level 70.7 %
Track quality 100.0 %
Test CRC 948C113A
Copy CRC 948C113A
Copy OK

No errors occured


End of status report


Ella Fitzgerald - Hello Love (1959) {2004 Verve Music Group} **[RE-UP]**