Tags
Language
Tags

VA - Epic Movie (Original Motion Picture Soundtrack) (2007) {Lakeshore} **[RE-UP]**

Posted By: TestTickles
VA - Epic Movie (Original Motion Picture Soundtrack) (2007) {Lakeshore} **[RE-UP]**

VA - Epic Movie (Original Motion Picture Soundtrack) (2007) {Lakeshore}
EAC Rip | FLAC with CUE and log | scans | 299 mb
MP3 CBR 320kbps | RAR | 121 mb
Genre: soundtrack, alternative, soul, R&B, modern pop, rap, hip-hop

This is the 2007 soundtrack album to the film Epic Movie. A comedy picture, this features music by Eagles Of Death Metal, E>K>U>K, Zach Danziger, Ali Dee & Chris Davis and many more. Lakeshore gave them money to make this a reality.

VA - Epic Movie (Original Motion Picture Soundtrack) (2007) {Lakeshore} **[RE-UP]**

1. Eagles Of Death Metal - Don't Speak (I Came To Make a Bang!)
2. SWJ featuring Sizzle C - Art Of War
3. E>K>U>K - Be More Robotic
4. Survivor - Eye Of The Tiger
5. Carl Douglas - Kung Fu Fighting
6. Cham Pain - My Block
7. Ali Dee - He's Willy
8. X5 featuring Mr. Tan - The Focus
9. LP featuring Jose Fuego - Pick It Up
10. SWJ featuring Sizzle C - Throw Your Cash Up
11. Zach Danziger, Ali Dee & Chris Davis Lazy Pirate Day
12. X5 - The Moment
13. E>K>U>K - Fire Fight
14. Dorian Childs - Bounce Dat Azz

VA - Epic Movie (Original Motion Picture Soundtrack) (2007) {Lakeshore} **[RE-UP]**


Exact Audio Copy V1.1 from 23. June 2015

EAC extraction logfile from 5. April 2017, 13:13

Various Artists / Epic Movie (Original Motion Picture Soundtrack)

Used drive : TEAC DVD-ROM DV-28SW Adapter: 1 ID: 0

Read mode : Secure
Utilize accurate stream : Yes
Defeat audio cache : Yes
Make use of C2 pointers : No

Read offset correction : 6
Overread into Lead-In and Lead-Out : No
Fill up missing offset samples with silence : Yes
Delete leading and trailing silent blocks : No
Null samples used in CRC calculations : Yes
Used interface : Native Win32 interface for Win NT & 2000
Gap handling : Appended to previous track

Used output format : Internal WAV Routines
Sample format : 44.100 Hz; 16 Bit; Stereo


TOC of the extracted CD

Track | Start | Length | Start sector | End sector
––––––––––––––––––––––––––––-
1 | 0:00.00 | 2:50.09 | 0 | 12758
2 | 2:50.09 | 2:53.50 | 12759 | 25783
3 | 5:43.59 | 2:51.11 | 25784 | 38619
4 | 8:34.70 | 4:05.52 | 38620 | 57046
5 | 12:40.47 | 3:12.65 | 57047 | 71511
6 | 15:53.37 | 2:43.07 | 71512 | 83743
7 | 18:36.44 | 3:14.46 | 83744 | 98339
8 | 21:51.15 | 1:59.49 | 98340 | 107313
9 | 23:50.64 | 2:32.50 | 107314 | 118763
10 | 26:23.39 | 2:17.08 | 118764 | 129046
11 | 28:40.47 | 2:05.69 | 129047 | 138490
12 | 30:46.41 | 2:52.20 | 138491 | 151410
13 | 33:38.61 | 2:53.40 | 151411 | 164425
14 | 36:32.26 | 3:19.63 | 164426 | 179413


Track 1

Filename C:\My Documents\My FLAC\VA - Epic Movie (Original Motion Picture Soundtrack) (2007) [FLAC] {Lakeshore}\01 - Eagles Of Death Metal - Don't Speak (I Came To Make A Bang!).wav

Pre-gap length 0:00:02.00

Peak level 100.0 %
Extraction speed 2.5 X
Track quality 100.0 %
Test CRC 2D344FB6
Copy CRC 2D344FB6
Accurately ripped (confidence 1) [420625CC] (AR v1)
Copy OK

Track 2

Filename C:\My Documents\My FLAC\VA - Epic Movie (Original Motion Picture Soundtrack) (2007) [FLAC] {Lakeshore}\02 - SWJ featuring Sizzle C - Art Of War.wav

Pre-gap length 0:00:02.00

Peak level 100.0 %
Extraction speed 2.9 X
Track quality 100.0 %
Test CRC EDBE9098
Copy CRC EDBE9098
Accurately ripped (confidence 1) [B2B981FE] (AR v1)
Copy OK

Track 3

Filename C:\My Documents\My FLAC\VA - Epic Movie (Original Motion Picture Soundtrack) (2007) [FLAC] {Lakeshore}\03 - E[K[U[K - Be More Robotic.wav

Pre-gap length 0:00:02.00

Peak level 100.0 %
Extraction speed 3.1 X
Track quality 100.0 %
Test CRC B56AD3B1
Copy CRC B56AD3B1
Accurately ripped (confidence 1) [BA5FC877] (AR v1)
Copy OK

Track 4

Filename C:\My Documents\My FLAC\VA - Epic Movie (Original Motion Picture Soundtrack) (2007) [FLAC] {Lakeshore}\04 - Survivor - Eye Of The Tiger.wav

Pre-gap length 0:00:02.00

Peak level 99.9 %
Extraction speed 2.9 X
Track quality 99.9 %
Test CRC 3E079B21
Copy CRC 3E079B21
Accurately ripped (confidence 1) [5CE44D55] (AR v1)
Copy OK

Track 5

Filename C:\My Documents\My FLAC\VA - Epic Movie (Original Motion Picture Soundtrack) (2007) [FLAC] {Lakeshore}\05 - Carl Douglas - Kung Fu Fighting.wav

Pre-gap length 0:00:02.00

Peak level 100.0 %
Extraction speed 2.9 X
Track quality 99.9 %
Test CRC 3912E33D
Copy CRC 3912E33D
Accurately ripped (confidence 1) [FDE9A1A0] (AR v1)
Copy OK

Track 6

Filename C:\My Documents\My FLAC\VA - Epic Movie (Original Motion Picture Soundtrack) (2007) [FLAC] {Lakeshore}\06 - Cham Pain - My Block.wav

Pre-gap length 0:00:02.00

Peak level 100.0 %
Extraction speed 3.6 X
Track quality 100.0 %
Test CRC 0BD6FBAD
Copy CRC 0BD6FBAD
Accurately ripped (confidence 1) [63050E39] (AR v1)
Copy OK

Track 7

Filename C:\My Documents\My FLAC\VA - Epic Movie (Original Motion Picture Soundtrack) (2007) [FLAC] {Lakeshore}\07 - Ali Dee - He's Willy.wav

Pre-gap length 0:00:02.00

Peak level 100.0 %
Extraction speed 3.8 X
Track quality 100.0 %
Test CRC 6A4A6E66
Copy CRC 6A4A6E66
Accurately ripped (confidence 1) [F0B6C17D] (AR v1)
Copy OK

Track 8

Filename C:\My Documents\My FLAC\VA - Epic Movie (Original Motion Picture Soundtrack) (2007) [FLAC] {Lakeshore}\08 - X5 featuring Mr. Tang - The Focus.wav

Pre-gap length 0:00:02.00

Peak level 100.0 %
Extraction speed 3.7 X
Track quality 100.0 %
Test CRC 27D1FC29
Copy CRC 27D1FC29
Accurately ripped (confidence 1) [2C30E89B] (AR v1)
Copy OK

Track 9

Filename C:\My Documents\My FLAC\VA - Epic Movie (Original Motion Picture Soundtrack) (2007) [FLAC] {Lakeshore}\09 - LP featuring Jose Fuego - Pick It Up.wav

Pre-gap length 0:00:02.00

Peak level 99.9 %
Extraction speed 4.0 X
Track quality 100.0 %
Test CRC 19918676
Copy CRC 19918676
Accurately ripped (confidence 1) [65C55A7F] (AR v1)
Copy OK

Track 10

Filename C:\My Documents\My FLAC\VA - Epic Movie (Original Motion Picture Soundtrack) (2007) [FLAC] {Lakeshore}\10 - SWJ featuring Sizzle C - Throw Your Cash Up.wav

Pre-gap length 0:00:02.00

Peak level 100.0 %
Extraction speed 3.0 X
Track quality 99.9 %
Test CRC A88471FF
Copy CRC A88471FF
Accurately ripped (confidence 1) [B2062077] (AR v1)
Copy OK

Track 11

Filename C:\My Documents\My FLAC\VA - Epic Movie (Original Motion Picture Soundtrack) (2007) [FLAC] {Lakeshore}\11 - Zach Danziger, Ali Dee & Chris Davis - Lazy Pirate Day.wav

Pre-gap length 0:00:02.00

Peak level 100.0 %
Extraction speed 4.1 X
Track quality 100.0 %
Test CRC 3F147F8E
Copy CRC 3F147F8E
Accurately ripped (confidence 1) [F6F55B37] (AR v1)
Copy OK

Track 12

Filename C:\My Documents\My FLAC\VA - Epic Movie (Original Motion Picture Soundtrack) (2007) [FLAC] {Lakeshore}\12 - X5 - The Moment.wav

Pre-gap length 0:00:02.00

Peak level 100.0 %
Extraction speed 4.4 X
Track quality 100.0 %
Test CRC 6065D987
Copy CRC 6065D987
Accurately ripped (confidence 1) [5069FADC] (AR v1)
Copy OK

Track 13

Filename C:\My Documents\My FLAC\VA - Epic Movie (Original Motion Picture Soundtrack) (2007) [FLAC] {Lakeshore}\13 - E[K[U[K - Fire Fight.wav

Pre-gap length 0:00:02.00

Peak level 100.0 %
Extraction speed 4.4 X
Track quality 100.0 %
Test CRC 651EAFC0
Copy CRC 651EAFC0
Accurately ripped (confidence 1) [9CC786F4] (AR v1)
Copy OK

Track 14

Filename C:\My Documents\My FLAC\VA - Epic Movie (Original Motion Picture Soundtrack) (2007) [FLAC] {Lakeshore}\14 - Dorian Childs - Bounce Dat Azz.wav

Pre-gap length 0:00:02.00

Peak level 79.7 %
Extraction speed 3.8 X
Track quality 99.9 %
Test CRC EF11715D
Copy CRC EF11715D
Accurately ripped (confidence 1) [32F91F31] (AR v1)
Copy OK


All tracks accurately ripped

No errors occurred

End of status report

–– CUETools DB Plugin V2.1.6

[CTDB TOCID: 0wXImCi5TxsL7vFq5atHjdWB.RQ-] found
Submit result: 0wXImCi5TxsL7vFq5atHjdWB.RQ- has been confirmed
Track | CTDB Status
1 | (2/2) Accurately ripped
2 | (2/2) Accurately ripped
3 | (2/2) Accurately ripped
4 | (2/2) Accurately ripped
5 | (2/2) Accurately ripped
6 | (2/2) Accurately ripped
7 | (2/2) Accurately ripped
8 | (2/2) Accurately ripped
9 | (2/2) Accurately ripped
10 | (2/2) Accurately ripped
11 | (2/2) Accurately ripped
12 | (2/2) Accurately ripped
13 | (2/2) Accurately ripped
14 | (2/2) Accurately ripped


==== Log checksum 5314F368591B81AD8EF68B3DAA3AD8A12C260A187A68C6D34724FD80F16BFE4C ====


VA - Epic Movie (Original Motion Picture Soundtrack) (2007) {Lakeshore} **[RE-UP]**