Subcategories
Tags
Language
Tags

E-Type - Angels Crying (Sweden CD5) (1998) {Stockholm}

Posted By: TestTickles
E-Type - Angels Crying (Sweden CD5) (1998) {Stockholm}

E-Type - Angels Crying (Sweden CD5) (1998) {Stockholm}
EAC Rip | FLAC with CUE and LOG | scans | 154 mb
MP3 CBR 320 kbps | RAR | 48 mb
Genre: Eurodance, electronic pop

"Anges Crying" is the 1998 single by Swedish act E-Type. This was released by Stockholm Records and features four mixes of the song, including a friendly radio version.

E-Type - Angels Crying (Sweden CD5) (1998) {Stockholm}

1. Angels Crying (Radio Version) (3:51)
2. Angels Crying (C&C Extended) (6:24)
3. Angels Crying (C&C Radio Edit) (3:35)
4. Angels Crying (Extended Version) (6:35)

Exact Audio Copy V0.99 prebeta 5 from 4. May 2009

Отчёт EAC об извлечении, выполненном 15. январь 2010, 7:25

E-Type / Angels Crying (Sweden CD5)

Used drive : TSSTcorpDVD+-RW TS-L633C Adapter: 1 ID: 0

Режим чтения : Достоверность
Использование точного потока : Да
Отключение кэша аудио : Да
Использование указателей C2 : Нет

Коррекция смещения при чтении : 30
Способность читать области Lead-in и Lead-out : Нет
Заполнение пропущенных сэмплов тишиной : Да
Удаление блоков с тишиной в начале и конце : Нет
При вычислениях CRC использовались нулевые сэмплы : Да
Интерфейс : Установленный внешний ASPI-интерфейс

Выходной формат : Внутренние WAV-операции
Формат сэмплов : 44.100 Гц; 16 бит; стерео

TOC извлечённого CD

Трек | Старт | Длительность | Начальный сектор | Конечный сектор
––––––––––––––––––––––––––––––––––-
1 | 0:00.00 | 3:51.15 | 0 | 17339
2 | 3:51.15 | 6:23.52 | 17340 | 46116
3 | 10:14.67 | 3:34.48 | 46117 | 62214
4 | 13:49.40 | 6:34.65 | 62215 | 91829

Характеристики диапазона извлечения и сообщения об ошибках

Выбранный диапазон

Имя файла C:\cuntfist\FLAC\E-Type - Angels Crying (Sweden CD5) (1998) [FLAC] {Stockholm}\E-Type - Angels Crying CDM.wav

Пиковый уровень 100.0 %
Качество диапазона 100.0 %
CRC теста 647E675A
CRC копии 647E675A
Копирование… OK

Ошибок не произошло

AccurateRip: сводка

Трек 1 точное извлечение (доверие 2) [DE8FD7C1]
Трек 2 точное извлечение (доверие 2) [A7B94BBE]
Трек 3 точное извлечение (доверие 2) [0F50450A]
Трек 4 точное извлечение (доверие 2) [1F9343CA]

Все треки извлечены точно

Конец отчёта


E-Type - Angels Crying (Sweden CD5) (1998) {Stockholm}


Thank you to the original uploader.