Subcategories
Tags
Language
Tags

Aki Takase - Shima Shoka (1991) {Enja}

Posted By: TestTickles
Aki Takase - Shima Shoka (1991) {Enja}

Aki Takase - Shima Shoka (1991) {Enja}
EAC Rip | FLAC with CUE and log | scans | 227 mb
MP3 CBR 320kbps | RAR | 117 mb
Genre: jazz

Shima Shoka is the 1991 album by Japanese pianist Aki Takase. This comes from a live recording done in Berlin in 1990 and is a solo piece. This was released by the Enja label

Aki Takase - Shima Shoka (1991) {Enja}

01. Meraviglioso (Dedicated To Horst Weber) (4:25)
02. Ida Lupino (8:41)
03. A.V.S. (2:23)
04. Point (4:15)
05. Presto V.H. (4:30)
06. Shima Shoka (5:32)
07. Rocking in Rhythm (5:11)
08. Timebends (4:15)
09. Dr. Beat (Dedicated To Otosan) (4:16)
10. Hanabi (1:08)
11. Giant Steps (5:23)
12. Goodbye Pork Pie Hat (5:55)
13. Valse Hot (3:41)

Aki Takase-piano

Produced by Horst Weber
Engineered by Ricardo Van Krugten, assisted by Juni Schmitz

Recorded at Bechstein Concert Hall, Berlin, 10th & 11th July, 1990

EAC extraction logfile from 12. March 2008, 07:18 for CD
Aki Takase / Shima Shoka

Used drive : PLEXTOR DVD-ROM PX-116A2 Adapter: 3 ID: 0
Read mode : Secure with NO C2, accurate stream, disable cache
Read offset correction : 102
Overread into Lead-In and Lead-Out : No

Used output format : Internal WAV Routines
44.100 Hz; 16 Bit; Stereo

Other options :
Fill up missing offset samples with silence : Yes
Delete leading and trailing silent blocks : No
Installed external ASPI interface


Track 1
Filename C:\cuntfist\FLAC\Aki Takase - Shima Shoka (1991) [FLAC] {Enja}\01 - Meraviglioso (Dedicated To Horst Weber).wav

Pre-gap length 0:00:02.33

Peak level 78.0 %
Track quality 99.9 %
Test CRC A700AF13
Copy CRC A700AF13
Copy OK

Track 2
Filename C:\cuntfist\FLAC\Aki Takase - Shima Shoka (1991) [FLAC] {Enja}\02 - Ida Lupino.wav

Pre-gap length 0:00:03.47

Peak level 93.3 %
Track quality 99.9 %
Test CRC 2375A3B1
Copy CRC 2375A3B1
Copy OK

Track 3
Filename C:\cuntfist\FLAC\Aki Takase - Shima Shoka (1991) [FLAC] {Enja}\03 - A.V.S..wav

Pre-gap length 0:00:03.05

Peak level 85.1 %
Track quality 100.0 %
Test CRC C2BAC112
Copy CRC C2BAC112
Copy OK

Track 4
Filename C:\cuntfist\FLAC\Aki Takase - Shima Shoka (1991) [FLAC] {Enja}\04 - Point.wav

Pre-gap length 0:00:04.25

Peak level 66.7 %
Track quality 100.0 %
Test CRC 149236C5
Copy CRC 149236C5
Copy OK

Track 5
Filename C:\cuntfist\FLAC\Aki Takase - Shima Shoka (1991) [FLAC] {Enja}\05 - Presto V.H..wav

Pre-gap length 0:00:02.35

Peak level 94.5 %
Track quality 100.0 %
Test CRC 0F1DF48C
Copy CRC 0F1DF48C
Copy OK

Track 6
Filename C:\cuntfist\FLAC\Aki Takase - Shima Shoka (1991) [FLAC] {Enja}\06 - Shima Shoka.wav

Pre-gap length 0:00:03.27

Peak level 75.8 %
Track quality 100.0 %
Test CRC ED0D0AF4
Copy CRC ED0D0AF4
Copy OK

Track 7
Filename C:\cuntfist\FLAC\Aki Takase - Shima Shoka (1991) [FLAC] {Enja}\07 - Rocking In Rhythm.wav

Pre-gap length 0:00:03.63

Peak level 100.0 %
Track quality 100.0 %
Test CRC 8F357CA2
Copy CRC 8F357CA2
Copy OK

Track 8
Filename C:\cuntfist\FLAC\Aki Takase - Shima Shoka (1991) [FLAC] {Enja}\08 - Timebends.wav

Pre-gap length 0:00:03.38

Peak level 71.7 %
Track quality 99.9 %
Test CRC C246FD2C
Copy CRC C246FD2C
Copy OK

Track 9
Filename C:\cuntfist\FLAC\Aki Takase - Shima Shoka (1991) [FLAC] {Enja}\09 - Dr. Beat (Dedicated To Otosan).wav

Pre-gap length 0:00:03.30

Peak level 72.9 %
Track quality 99.9 %
Test CRC 80EED6BD
Copy CRC 80EED6BD
Copy OK

Track 10
Filename C:\cuntfist\FLAC\Aki Takase - Shima Shoka (1991) [FLAC] {Enja}\10 - Hanabi.wav

Pre-gap length 0:00:04.25

Peak level 72.7 %
Track quality 100.0 %
Test CRC AAD104B2
Copy CRC AAD104B2
Copy OK

Track 11
Filename C:\cuntfist\FLAC\Aki Takase - Shima Shoka (1991) [FLAC] {Enja}\11 - Giant Steps.wav

Pre-gap length 0:00:03.05

Peak level 100.0 %
Track quality 100.0 %
Test CRC 269A9B5B
Copy CRC 269A9B5B
Copy OK

Track 12
Filename C:\cuntfist\FLAC\Aki Takase - Shima Shoka (1991) [FLAC] {Enja}\12 - Goodbye Pork Pie Hat.wav

Pre-gap length 0:00:03.63

Peak level 82.2 %
Track quality 100.0 %
Test CRC 2F989411
Copy CRC 2F989411
Copy OK

Track 13
Filename C:\cuntfist\FLAC\Aki Takase - Shima Shoka (1991) [FLAC] {Enja}\13 - Valse Hot.wav

Pre-gap length 0:00:04.60

Peak level 76.3 %
Track quality 100.0 %
Test CRC 4C51451E
Copy CRC 4C51451E
Copy OK

No errors occured


End of status report


Aki Takase - Shima Shoka (1991) {Enja}


Thank you to the original uploader.