Subcategories
Tags
Language
Tags

Aki Takase - Plays "Fats" Waller (2004) {Enja}

Posted By: TestTickles
Aki Takase - Plays "Fats" Waller (2004) {Enja}

Aki Takase - Plays "Fats" Waller (2004) {Enja}
EAC Rip | FLAC with CUE and log | scans | 232 mb
MP3 CBR 320kbps | RAR | 115 mb
Genre: jazz

Aki Takase Plays "Fats" Waller is a 2004 album by Japanese pianist Aki Takase. Taken from a recording done in June 2003, this was released by German label Enja.

Aki Takase - Plays "Fats" Waller (2004) {Enja}

01. Lookin' Good, But Feelin' Bad (2:49)
02. Vipers Drag (6:45)
03. Ain't Misbehavin' (4:50)
04. Handful Of Keys (4:45)
05. Any Tune, But Fats Tune (4:42)
06. Your Feet's Too Big (2:07)
07. Intermezzo 1 (2:03)
08. Do You Know What It Means To Miss New Orleans (3:32)
09. Intermezzo 2 (1:03)
10. Hold Tight (2:09)
11. Kuroneko Yamato (3:00)
12. Intermezzo 3 (0:53)
13. I Have Got A Feeling I'm Falling (2:14)
14. Tintenfisch In Wien (4:05)
15. Kauf Dir Einen Bunten Luftballon (4:24)

Aki Takase-piano, toy piano
Eugene Chadbourne-vocal, banjo, guitar
Nils Wogram-trombone
Rudi Mahall-bass clarinet
Thomas Heberer-trumpet
Paul Lovens-drums

Produced by Werner Aldinger
Recorded by Hrolfur Vagnsson
Mixed by Rainer Robben

EAC extraction logfile from 11. March 2008, 12:18 for CD
Aki Takase / Plays "Fats" Waller

Used drive : PLEXTOR DVD-ROM PX-116A2 Adapter: 3 ID: 0
Read mode : Secure with NO C2, accurate stream, disable cache
Read offset correction : 102
Overread into Lead-In and Lead-Out : No

Used output format : Internal WAV Routines
44.100 Hz; 16 Bit; Stereo

Other options :
Fill up missing offset samples with silence : Yes
Delete leading and trailing silent blocks : No
Installed external ASPI interface


Track 1
Filename C:\cuntfist\FLAC\Aki Takase - Plays ''Fats'' Waller (2004) [FLAC] {Enja}\01 - Lookin' Good, But Feelin' Bad.wav

Pre-gap length 0:00:02.00

Peak level 100.0 %
Track quality 100.0 %
Test CRC 8E5AAA95
Copy CRC 8E5AAA95
Copy OK

Track 2
Filename C:\cuntfist\FLAC\Aki Takase - Plays ''Fats'' Waller (2004) [FLAC] {Enja}\02 - Vipers Drag.wav

Peak level 100.0 %
Track quality 100.0 %
Test CRC 422A6122
Copy CRC 422A6122
Copy OK

Track 3
Filename C:\cuntfist\FLAC\Aki Takase - Plays ''Fats'' Waller (2004) [FLAC] {Enja}\03 - Ain't Misbehavin'.wav

Peak level 92.3 %
Track quality 100.0 %
Test CRC A40A1570
Copy CRC A40A1570
Copy OK

Track 4
Filename C:\cuntfist\FLAC\Aki Takase - Plays ''Fats'' Waller (2004) [FLAC] {Enja}\04 - Handful Of Keys.wav

Peak level 97.1 %
Track quality 100.0 %
Test CRC 24D82625
Copy CRC 24D82625
Copy OK

Track 5
Filename C:\cuntfist\FLAC\Aki Takase - Plays ''Fats'' Waller (2004) [FLAC] {Enja}\05 - Any Tune, But Fats Tune.wav

Peak level 100.0 %
Track quality 100.0 %
Test CRC A2B04F45
Copy CRC A2B04F45
Copy OK

Track 6
Filename C:\cuntfist\FLAC\Aki Takase - Plays ''Fats'' Waller (2004) [FLAC] {Enja}\06 - Your Feet's Too Big.wav

Peak level 96.9 %
Track quality 100.0 %
Test CRC F5AB72A0
Copy CRC F5AB72A0
Copy OK

Track 7
Filename C:\cuntfist\FLAC\Aki Takase - Plays ''Fats'' Waller (2004) [FLAC] {Enja}\07 - Intermezzo 1.wav

Peak level 91.4 %
Track quality 100.0 %
Test CRC D699FC3C
Copy CRC D699FC3C
Copy OK

Track 8
Filename C:\cuntfist\FLAC\Aki Takase - Plays ''Fats'' Waller (2004) [FLAC] {Enja}\08 - Do You Know What It Means To Miss New Orleans.wav

Peak level 92.6 %
Track quality 100.0 %
Test CRC 12A3CAD2
Copy CRC 12A3CAD2
Copy OK

Track 9
Filename C:\cuntfist\FLAC\Aki Takase - Plays ''Fats'' Waller (2004) [FLAC] {Enja}\09 - Intermezzo 2.wav

Peak level 64.3 %
Track quality 100.0 %
Test CRC 9FE5DB88
Copy CRC 9FE5DB88
Copy OK

Track 10
Filename C:\cuntfist\FLAC\Aki Takase - Plays ''Fats'' Waller (2004) [FLAC] {Enja}\10 - Hold Tight.wav

Peak level 100.0 %
Track quality 100.0 %
Test CRC 289CAFE2
Copy CRC 289CAFE2
Copy OK

Track 11
Filename C:\cuntfist\FLAC\Aki Takase - Plays ''Fats'' Waller (2004) [FLAC] {Enja}\11 - Kuroneko Yamato.wav

Peak level 100.0 %
Track quality 100.0 %
Test CRC 080ED732
Copy CRC 080ED732
Copy OK

Track 12
Filename C:\cuntfist\FLAC\Aki Takase - Plays ''Fats'' Waller (2004) [FLAC] {Enja}\12 - Intermezzo 3.wav

Peak level 91.1 %
Track quality 100.0 %
Test CRC 983F0409
Copy CRC 983F0409
Copy OK

Track 13
Filename C:\cuntfist\FLAC\Aki Takase - Plays ''Fats'' Waller (2004) [FLAC] {Enja}\13 - I Have Got A Feeling I'm Falling.wav

Peak level 97.3 %
Track quality 100.0 %
Test CRC 2AD2D234
Copy CRC 2AD2D234
Copy OK

Track 14
Filename C:\cuntfist\FLAC\Aki Takase - Plays ''Fats'' Waller (2004) [FLAC] {Enja}\14 - Tintenfisch In Wien.wav

Peak level 92.4 %
Track quality 99.9 %
Test CRC F8ACCBD0
Copy CRC F8ACCBD0
Copy OK

Track 15
Filename C:\cuntfist\FLAC\Aki Takase - Plays ''Fats'' Waller (2004) [FLAC] {Enja}\15 - Kauf Dir Einen Bunten Luftballon.wav

Peak level 100.0 %
Track quality 100.0 %
Test CRC 24CE2A6D
Copy CRC 24CE2A6D
Copy OK

No errors occured


End of status report


Aki Takase - Plays "Fats" Waller (2004) {Enja}


Thank you to the original uploader.