Subcategories

Artie Shaw - The Big Band Legends (3CD) (1993)

Posted By: TestTickles
Artie Shaw - The Big Band Legends (3CD) (1993)

Artie Shaw - The Big Band Legends (3CD) (1993)
EAC Rip | FLAC with CUE and log | scans | 466 mb
MP3 CBR 320kbps | RAR | 269 mb
Genre: jazz, big band

The Big Band Legends is a 3CD compilation by jazz legend Artie Shaw. This was released by GSC Music/RCA Special Products/BMG Direct Marketing.

This CD was purchased without a booklet so the only scans here are the inlays and discs.

Artie Shaw - The Big Band Legends (3CD) (1993)

DISC 1
01. Begin The Beguine
02. Between A Kiss And A Sigh
03. Back Bay Shuffle
04. Stardust
05. Traffic Jam
06. The Carioca
07. Indian Love Call
08. Any Old Time
09. Jungle Drums
10. Deep Purple
11. When Winter Comes In
12. Nightmare

DISC 2
01. Frenesi
02. Deep In A Dream
03. Non-Stop Flight
04. April In Paris
05. Oh Lady Be Good
06. Serenade To A Savage
07. Summit Ridge Drive
08. Temptation
09. Special Delivery Stomp
10. My Blue Heaven
11. Smoke Gets In Your Eyes
12. Concerto For Clarinet

DISC 3
01. Dancing In The Dark
02. St. James Infirmary
03. They Can't Take That Away From Me
04. Moonglow
05. 'S Wonderful
06. Beyond The Blue Horizon
07. I Cover The Waterfront
08. Someone To Watch Over Me
09. Hindustan
10. Dancing On The Ceiling
11. Our Love Is Here To Stay
12. Thanks For Everything

Exact Audio Copy V1.1 from 23. June 2015

EAC extraction logfile from 21. February 2017, 10:50

Artie Shaw / The Big Band Legends (Disc 1)

Used drive : TEAC DVD-ROM DV-28SW Adapter: 1 ID: 0

Read mode : Secure
Utilize accurate stream : Yes
Defeat audio cache : Yes
Make use of C2 pointers : No

Read offset correction : 6
Overread into Lead-In and Lead-Out : No
Fill up missing offset samples with silence : Yes
Delete leading and trailing silent blocks : No
Null samples used in CRC calculations : Yes
Used interface : Native Win32 interface for Win NT & 2000
Gap handling : Appended to previous track

Used output format : Internal WAV Routines
Sample format : 44.100 Hz; 16 Bit; Stereo


TOC of the extracted CD

Track | Start | Length | Start sector | End sector
––––––––––––––––––––––––––––-
1 | 0:00.00 | 3:15.45 | 0 | 14669
2 | 3:15.45 | 3:08.17 | 14670 | 28786
3 | 6:23.62 | 3:15.33 | 28787 | 43444
4 | 9:39.20 | 3:33.17 | 43445 | 59436
5 | 13:12.37 | 2:15.43 | 59437 | 69604
6 | 15:28.05 | 4:05.70 | 69605 | 88049
7 | 19:34.00 | 3:10.30 | 88050 | 102329
8 | 22:44.30 | 3:12.60 | 102330 | 116789
9 | 25:57.15 | 3:31.72 | 116790 | 132686
10 | 29:29.12 | 3:13.23 | 132687 | 147184
11 | 32:42.35 | 2:53.50 | 147185 | 160209
12 | 35:36.10 | 2:49.35 | 160210 | 172919


Track 1

Filename C:\My Documents\My FLAC\Artie Shaw - The Big Band Legends (3CD) (1993) [FLAC]\Disc 1\01 - Begin The Beguine.wav

Pre-gap length 0:00:02.00

Peak level 93.3 %
Extraction speed 1.5 X
Track quality 100.0 %
Test CRC BB6B34B9
Copy CRC BB6B34B9
Accurately ripped (confidence 1) [C4AB6865] (AR v1)
Copy OK

Track 2

Filename C:\My Documents\My FLAC\Artie Shaw - The Big Band Legends (3CD) (1993) [FLAC]\Disc 1\02 - Between A Kiss And A Sigh.wav

Pre-gap length 0:00:02.45

Peak level 91.9 %
Extraction speed 2.0 X
Track quality 99.9 %
Test CRC 22AC0201
Copy CRC 22AC0201
Accurately ripped (confidence 1) [1442D039] (AR v1)
Copy OK

Track 3

Filename C:\My Documents\My FLAC\Artie Shaw - The Big Band Legends (3CD) (1993) [FLAC]\Disc 1\03 - Back Bay Shuffle.wav

Pre-gap length 0:00:02.45

Peak level 90.3 %
Extraction speed 1.8 X
Track quality 100.0 %
Test CRC 0E296969
Copy CRC 0E296969
Accurately ripped (confidence 1) [88418292] (AR v1)
Copy OK

Track 4

Filename C:\My Documents\My FLAC\Artie Shaw - The Big Band Legends (3CD) (1993) [FLAC]\Disc 1\04 - Stardust.wav

Pre-gap length 0:00:02.45

Peak level 88.3 %
Extraction speed 2.8 X
Track quality 100.0 %
Test CRC CA9F801C
Copy CRC CA9F801C
Accurately ripped (confidence 1) [2CFD38C2] (AR v1)
Copy OK

Track 5

Filename C:\My Documents\My FLAC\Artie Shaw - The Big Band Legends (3CD) (1993) [FLAC]\Disc 1\05 - Traffic Jam.wav

Pre-gap length 0:00:02.45

Peak level 88.5 %
Extraction speed 2.6 X
Track quality 100.0 %
Test CRC A5EC8085
Copy CRC A5EC8085
Accurately ripped (confidence 1) [86148DDA] (AR v1)
Copy OK

Track 6

Filename C:\My Documents\My FLAC\Artie Shaw - The Big Band Legends (3CD) (1993) [FLAC]\Disc 1\06 - The Carioca.wav

Pre-gap length 0:00:02.45

Peak level 91.6 %
Extraction speed 3.0 X
Track quality 100.0 %
Test CRC 7451489B
Copy CRC 7451489B
Accurately ripped (confidence 1) [F490166C] (AR v1)
Copy OK

Track 7

Filename C:\My Documents\My FLAC\Artie Shaw - The Big Band Legends (3CD) (1993) [FLAC]\Disc 1\07 - Indian Love Call.wav

Pre-gap length 0:00:02.45

Peak level 90.0 %
Extraction speed 2.5 X
Track quality 100.0 %
Test CRC 09A8FC69
Copy CRC 09A8FC69
Accurately ripped (confidence 1) [FF45E038] (AR v1)
Copy OK

Track 8

Filename C:\My Documents\My FLAC\Artie Shaw - The Big Band Legends (3CD) (1993) [FLAC]\Disc 1\08 - Any Old Time.wav

Pre-gap length 0:00:02.45

Peak level 89.2 %
Extraction speed 3.5 X
Track quality 100.0 %
Test CRC D9742D04
Copy CRC D9742D04
Accurately ripped (confidence 1) [6167C930] (AR v1)
Copy OK

Track 9

Filename C:\My Documents\My FLAC\Artie Shaw - The Big Band Legends (3CD) (1993) [FLAC]\Disc 1\09 - Jungle Drums.wav

Pre-gap length 0:00:02.45

Peak level 94.4 %
Extraction speed 3.6 X
Track quality 100.0 %
Test CRC 71FB0EF6
Copy CRC 71FB0EF6
Accurately ripped (confidence 1) [FC37F742] (AR v1)
Copy OK

Track 10

Filename C:\My Documents\My FLAC\Artie Shaw - The Big Band Legends (3CD) (1993) [FLAC]\Disc 1\10 - Deep Purple.wav

Pre-gap length 0:00:02.45

Peak level 92.4 %
Extraction speed 3.7 X
Track quality 100.0 %
Test CRC C1A80BF2
Copy CRC C1A80BF2
Accurately ripped (confidence 1) [AC38D8A0] (AR v1)
Copy OK

Track 11

Filename C:\My Documents\My FLAC\Artie Shaw - The Big Band Legends (3CD) (1993) [FLAC]\Disc 1\11 - When Winter Comes In.wav

Pre-gap length 0:00:02.45

Peak level 90.6 %
Extraction speed 3.8 X
Track quality 100.0 %
Test CRC C30393BF
Copy CRC C30393BF
Accurately ripped (confidence 1) [8B2A07F6] (AR v1)
Copy OK

Track 12

Filename C:\My Documents\My FLAC\Artie Shaw - The Big Band Legends (3CD) (1993) [FLAC]\Disc 1\12 - Nightmare.wav

Pre-gap length 0:00:02.45

Peak level 84.4 %
Extraction speed 4.0 X
Track quality 100.0 %
Test CRC 49E64722
Copy CRC 49E64722
Accurately ripped (confidence 1) [8639F426] (AR v1)
Copy OK


All tracks accurately ripped

No errors occurred

End of status report

–– CUETools DB Plugin V2.1.6

[CTDB TOCID: fiyVE09EVle5LEUPxEeg4ifFKgo-] found
Submit result: fiyVE09EVle5LEUPxEeg4ifFKgo- has been confirmed
Track | CTDB Status
1 | (3/3) Accurately ripped
2 | (3/3) Accurately ripped
3 | (3/3) Accurately ripped
4 | (3/3) Accurately ripped
5 | (3/3) Accurately ripped
6 | (3/3) Accurately ripped
7 | (3/3) Accurately ripped
8 | (3/3) Accurately ripped
9 | (3/3) Accurately ripped
10 | (3/3) Accurately ripped
11 | (3/3) Accurately ripped
12 | (3/3) Accurately ripped


==== Log checksum 8C392D35A0DFCA4E785844B164D9ECAADABF12A55F6883BD873FA6A430CD2F66 ====







Exact Audio Copy V1.1 from 23. June 2015

EAC extraction logfile from 21. February 2017, 11:23

Artie Shaw / The Big Band Legends (Disc 2)

Used drive : TEAC DVD-ROM DV-28SW Adapter: 1 ID: 0

Read mode : Secure
Utilize accurate stream : Yes
Defeat audio cache : Yes
Make use of C2 pointers : No

Read offset correction : 6
Overread into Lead-In and Lead-Out : No
Fill up missing offset samples with silence : Yes
Delete leading and trailing silent blocks : No
Null samples used in CRC calculations : Yes
Used interface : Native Win32 interface for Win NT & 2000
Gap handling : Appended to previous track

Used output format : Internal WAV Routines
Sample format : 44.100 Hz; 16 Bit; Stereo


TOC of the extracted CD

Track | Start | Length | Start sector | End sector
––––––––––––––––––––––––––––-
1 | 0:00.00 | 3:04.27 | 0 | 13826
2 | 3:04.27 | 3:17.13 | 13827 | 28614
3 | 6:21.40 | 2:48.30 | 28615 | 41244
4 | 9:09.70 | 3:26.55 | 41245 | 56749
5 | 12:36.50 | 3:09.25 | 56750 | 70949
6 | 15:46.00 | 2:31.27 | 70950 | 82301
7 | 18:17.27 | 3:20.48 | 82302 | 97349
8 | 21:38.00 | 3:05.22 | 97350 | 111246
9 | 24:43.22 | 2:44.58 | 111247 | 123604
10 | 27:28.05 | 3:46.55 | 123605 | 140609
11 | 31:14.60 | 3:16.52 | 140610 | 155361
12 | 34:31.37 | 9:26.48 | 155362 | 197859


Track 1

Filename C:\My Documents\My FLAC\Artie Shaw - The Big Band Legends (3CD) (1993) [FLAC]\Disc 2\01 - Frenesi.wav

Pre-gap length 0:00:02.00

Peak level 89.5 %
Extraction speed 2.6 X
Track quality 100.0 %
Test CRC 5E67FF5C
Copy CRC 5E67FF5C
Accurately ripped (confidence 1) [161E4F54] (AR v1)
Copy OK

Track 2

Filename C:\My Documents\My FLAC\Artie Shaw - The Big Band Legends (3CD) (1993) [FLAC]\Disc 2\02 - Deep In A Dream.wav

Pre-gap length 0:00:02.45

Peak level 72.0 %
Extraction speed 2.4 X
Track quality 99.9 %
Test CRC 310561C6
Copy CRC 310561C6
Accurately ripped (confidence 1) [75FE73CE] (AR v1)
Copy OK

Track 3

Filename C:\My Documents\My FLAC\Artie Shaw - The Big Band Legends (3CD) (1993) [FLAC]\Disc 2\03 - Non-Stop Flight.wav

Pre-gap length 0:00:02.45

Peak level 89.6 %
Extraction speed 3.0 X
Track quality 100.0 %
Test CRC 97A67841
Copy CRC 97A67841
Accurately ripped (confidence 1) [BFE2CBEE] (AR v1)
Copy OK

Track 4

Filename C:\My Documents\My FLAC\Artie Shaw - The Big Band Legends (3CD) (1993) [FLAC]\Disc 2\04 - April In Paris.wav

Pre-gap length 0:00:02.45

Peak level 89.5 %
Extraction speed 3.2 X
Track quality 100.0 %
Test CRC 7DC5C50C
Copy CRC 7DC5C50C
Accurately ripped (confidence 1) [2D782C32] (AR v1)
Copy OK

Track 5

Filename C:\My Documents\My FLAC\Artie Shaw - The Big Band Legends (3CD) (1993) [FLAC]\Disc 2\05 - Oh Lady Be Good.wav

Pre-gap length 0:00:02.45

Peak level 93.3 %
Extraction speed 3.4 X
Track quality 100.0 %
Test CRC 3F67CA9A
Copy CRC 3F67CA9A
Accurately ripped (confidence 1) [B60CBE8E] (AR v1)
Copy OK

Track 6

Filename C:\My Documents\My FLAC\Artie Shaw - The Big Band Legends (3CD) (1993) [FLAC]\Disc 2\06 - Serenade To A Savage.wav

Pre-gap length 0:00:02.45

Peak level 94.4 %
Extraction speed 2.7 X
Track quality 99.9 %
Test CRC 56646DCB
Copy CRC 56646DCB
Accurately ripped (confidence 1) [921E015A] (AR v1)
Copy OK

Track 7

Filename C:\My Documents\My FLAC\Artie Shaw - The Big Band Legends (3CD) (1993) [FLAC]\Disc 2\07 - Summit Ridge Drive.wav

Pre-gap length 0:00:02.45

Peak level 80.0 %
Extraction speed 3.8 X
Track quality 100.0 %
Test CRC B7B2F61C
Copy CRC B7B2F61C
Accurately ripped (confidence 1) [A4A61C3E] (AR v1)
Copy OK

Track 8

Filename C:\My Documents\My FLAC\Artie Shaw - The Big Band Legends (3CD) (1993) [FLAC]\Disc 2\08 - Temptation.wav

Pre-gap length 0:00:02.45

Peak level 90.8 %
Extraction speed 3.9 X
Track quality 100.0 %
Test CRC 6A180F21
Copy CRC 6A180F21
Accurately ripped (confidence 1) [70E7331D] (AR v1)
Copy OK

Track 9

Filename C:\My Documents\My FLAC\Artie Shaw - The Big Band Legends (3CD) (1993) [FLAC]\Disc 2\09 - Special Delivery Stomp.wav

Pre-gap length 0:00:02.45

Peak level 86.8 %
Extraction speed 4.0 X
Track quality 100.0 %
Test CRC 099FB0C6
Copy CRC 099FB0C6
Accurately ripped (confidence 1) [027C98CC] (AR v1)
Copy OK

Track 10

Filename C:\My Documents\My FLAC\Artie Shaw - The Big Band Legends (3CD) (1993) [FLAC]\Disc 2\10 - My Blue Heaven.wav

Pre-gap length 0:00:02.45

Peak level 92.3 %
Extraction speed 3.6 X
Track quality 99.9 %
Test CRC 93E2C115
Copy CRC 93E2C115
Accurately ripped (confidence 1) [1A6A3852] (AR v1)
Copy OK

Track 11

Filename C:\My Documents\My FLAC\Artie Shaw - The Big Band Legends (3CD) (1993) [FLAC]\Disc 2\11 - Smoke Gets In Your Eyes.wav

Pre-gap length 0:00:02.45

Peak level 83.1 %
Extraction speed 4.1 X
Track quality 100.0 %
Test CRC D235B59D
Copy CRC D235B59D
Accurately ripped (confidence 1) [90F2BE79] (AR v1)
Copy OK

Track 12

Filename C:\My Documents\My FLAC\Artie Shaw - The Big Band Legends (3CD) (1993) [FLAC]\Disc 2\12 - Concerto For Clarinet.wav

Pre-gap length 0:00:02.45

Peak level 94.9 %
Extraction speed 5.0 X
Track quality 100.0 %
Test CRC F533EE0E
Copy CRC F533EE0E
Accurately ripped (confidence 1) [565D3035] (AR v1)
Copy OK


All tracks accurately ripped

No errors occurred

End of status report

–– CUETools DB Plugin V2.1.6

[CTDB TOCID: 61iEVb3UuG2S8HjhlSLme58ugO4-] found
Submit result: 61iEVb3UuG2S8HjhlSLme58ugO4- has been confirmed
Track | CTDB Status
1 | (1/1) Accurately ripped
2 | (1/1) Accurately ripped
3 | (1/1) Accurately ripped
4 | (1/1) Accurately ripped
5 | (1/1) Accurately ripped
6 | (1/1) Accurately ripped
7 | (1/1) Accurately ripped
8 | (1/1) Accurately ripped
9 | (1/1) Accurately ripped
10 | (1/1) Accurately ripped
11 | (1/1) Accurately ripped
12 | (1/1) Accurately ripped


==== Log checksum F0A5095EE53247AEE9A4E6130B5799B67E994098B16A25BA44413C744D06D78C ====







Exact Audio Copy V1.1 from 23. June 2015

EAC extraction logfile from 21. February 2017, 12:38

Artie Shaw / The Big Band Legends (Disc 3)

Used drive : TEAC DVD-ROM DV-28SW Adapter: 1 ID: 0

Read mode : Secure
Utilize accurate stream : Yes
Defeat audio cache : Yes
Make use of C2 pointers : No

Read offset correction : 6
Overread into Lead-In and Lead-Out : No
Fill up missing offset samples with silence : Yes
Delete leading and trailing silent blocks : No
Null samples used in CRC calculations : Yes
Used interface : Native Win32 interface for Win NT & 2000
Gap handling : Appended to previous track

Used output format : Internal WAV Routines
Sample format : 44.100 Hz; 16 Bit; Stereo


TOC of the extracted CD

Track | Start | Length | Start sector | End sector
––––––––––––––––––––––––––––-
1 | 0:00.00 | 3:04.40 | 0 | 13839
2 | 3:04.40 | 6:21.60 | 13840 | 42474
3 | 9:26.25 | 2:45.20 | 42475 | 54869
4 | 12:11.45 | 3:28.30 | 54870 | 70499
5 | 15:40.00 | 3:07.47 | 70500 | 84571
6 | 18:47.47 | 2:45.30 | 84572 | 96976
7 | 21:33.02 | 3:31.20 | 96977 | 112821
8 | 25:04.22 | 3:02.53 | 112822 | 126524
9 | 28:07.00 | 3:21.67 | 126525 | 141666
10 | 31:28.67 | 3:09.38 | 141667 | 155879
11 | 34:38.30 | 2:54.17 | 155880 | 168946
12 | 37:32.47 | 3:16.70 | 168947 | 183716


Track 1

Filename C:\My Documents\My FLAC\Artie Shaw - The Big Band Legends (3CD) (1993) [FLAC]\Disc 3\01 - Dancing In The Dark.wav

Pre-gap length 0:00:02.00

Peak level 91.2 %
Extraction speed 2.6 X
Track quality 100.0 %
Test CRC 14306931
Copy CRC 14306931
Cannot be verified as accurate (confidence 1) [E0474DE5], AccurateRip returned [30436A37] (AR v2)
Copy OK

Track 2

Filename C:\My Documents\My FLAC\Artie Shaw - The Big Band Legends (3CD) (1993) [FLAC]\Disc 3\02 - St. James Infirmary.wav

Pre-gap length 0:00:02.45

Peak level 90.7 %
Extraction speed 2.8 X
Track quality 99.9 %
Test CRC E2076AF8
Copy CRC E2076AF8
Accurately ripped (confidence 1) [3252D01C] (AR v1)
Copy OK

Track 3

Filename C:\My Documents\My FLAC\Artie Shaw - The Big Band Legends (3CD) (1993) [FLAC]\Disc 3\03 - They Can't Take That Away From Me.wav

Pre-gap length 0:00:02.45

Peak level 85.2 %
Extraction speed 2.9 X
Track quality 100.0 %
Test CRC ED568C8C
Copy CRC ED568C8C
Accurately ripped (confidence 1) [33B072EA] (AR v1)
Copy OK

Track 4

Filename C:\My Documents\My FLAC\Artie Shaw - The Big Band Legends (3CD) (1993) [FLAC]\Disc 3\04 - Moonglow.wav

Pre-gap length 0:00:02.45

Peak level 94.3 %
Extraction speed 3.4 X
Track quality 100.0 %
Test CRC E7FE8CEE
Copy CRC E7FE8CEE
Accurately ripped (confidence 1) [13955ED9] (AR v1)
Copy OK

Track 5

Filename C:\My Documents\My FLAC\Artie Shaw - The Big Band Legends (3CD) (1993) [FLAC]\Disc 3\05 - 'S Wonderful.wav

Pre-gap length 0:00:02.45

Peak level 93.4 %
Extraction speed 3.5 X
Track quality 100.0 %
Test CRC 58371E0F
Copy CRC 58371E0F
Accurately ripped (confidence 1) [6D7ADFC2] (AR v1)
Copy OK

Track 6

Filename C:\My Documents\My FLAC\Artie Shaw - The Big Band Legends (3CD) (1993) [FLAC]\Disc 3\06 - Beyond The Blue Horizon.wav

Pre-gap length 0:00:02.45

Peak level 91.2 %
Extraction speed 3.2 X
Track quality 100.0 %
Test CRC 5B328F2C
Copy CRC 5B328F2C
Accurately ripped (confidence 1) [394512AA] (AR v1)
Copy OK

Track 7

Filename C:\My Documents\My FLAC\Artie Shaw - The Big Band Legends (3CD) (1993) [FLAC]\Disc 3\07 - I Cover The Waterfront.wav

Pre-gap length 0:00:02.45

Peak level 93.5 %
Extraction speed 3.8 X
Track quality 100.0 %
Test CRC F1F002E4
Copy CRC F1F002E4
Accurately ripped (confidence 1) [3F483C5A] (AR v1)
Copy OK

Track 8

Filename C:\My Documents\My FLAC\Artie Shaw - The Big Band Legends (3CD) (1993) [FLAC]\Disc 3\08 - Someone To Watch Over Me.wav

Pre-gap length 0:00:02.45

Peak level 90.0 %
Extraction speed 4.1 X
Track quality 100.0 %
Test CRC 706FB416
Copy CRC 706FB416
Accurately ripped (confidence 1) [C1710CC9] (AR v1)
Copy OK

Track 9

Filename C:\My Documents\My FLAC\Artie Shaw - The Big Band Legends (3CD) (1993) [FLAC]\Disc 3\09 - Hindustan.wav

Pre-gap length 0:00:02.45

Peak level 91.8 %
Extraction speed 4.3 X
Track quality 100.0 %
Test CRC CFFA29A8
Copy CRC CFFA29A8
Accurately ripped (confidence 1) [005BD1DB] (AR v1)
Copy OK

Track 10

Filename C:\My Documents\My FLAC\Artie Shaw - The Big Band Legends (3CD) (1993) [FLAC]\Disc 3\10 - Dancing On The Ceiling.wav

Pre-gap length 0:00:02.45

Peak level 90.1 %
Extraction speed 4.4 X
Track quality 100.0 %
Test CRC 904EEAF2
Copy CRC 8326BA19
Accurately ripped (confidence 1) [DD84566C] (AR v1)
Copy OK

Track 11

Filename C:\My Documents\My FLAC\Artie Shaw - The Big Band Legends (3CD) (1993) [FLAC]\Disc 3\11 - Our Love Is Here To Stay.wav

Pre-gap length 0:00:02.45

Peak level 89.4 %
Extraction speed 4.0 X
Track quality 100.0 %
Test CRC 4E8038A6
Copy CRC 4E8038A6
Accurately ripped (confidence 1) [F5F4F731] (AR v1)
Copy OK

Track 12

Filename C:\My Documents\My FLAC\Artie Shaw - The Big Band Legends (3CD) (1993) [FLAC]\Disc 3\12 - Thanks For Everything.wav

Pre-gap length 0:00:02.45

Peak level 90.7 %
Extraction speed 4.8 X
Track quality 100.0 %
Test CRC AC2FA40D
Copy CRC AC2FA40D
Accurately ripped (confidence 1) [80D1839D] (AR v1)
Copy OK


11 track(s) accurately ripped
1 track(s) could not be verified as accurate

Some tracks could not be verified as accurate

No errors occurred

End of status report

–– CUETools DB Plugin V2.1.6

[CTDB TOCID: 3FtsvbsurDBpGoZk23IK.6EagP0-] found
Submit result: 3FtsvbsurDBpGoZk23IK.6EagP0- has been confirmed
Track | CTDB Status
1 | (2/2) Accurately ripped
2 | (2/2) Accurately ripped
3 | (2/2) Accurately ripped
4 | (2/2) Accurately ripped
5 | (2/2) Accurately ripped
6 | (2/2) Accurately ripped
7 | (2/2) Accurately ripped
8 | (2/2) Accurately ripped
9 | (2/2) Accurately ripped
10 | (2/2) Accurately ripped
11 | (2/2) Accurately ripped
12 | (2/2) Accurately ripped


==== Log checksum 53A569F5398013967D1229CBBE5B5A16E3B8636EFA3B69C83796E03F2C0F56DB ====


Artie Shaw - The Big Band Legends (3CD) (1993)