Subcategories

Artie Shaw & His Orchestra - 22 Original Big-Band Recordings (1985) {Ranwood}

Posted By: TestTickles
Artie Shaw & His Orchestra - 22 Original Big-Band Recordings (1985) {Ranwood}

Artie Shaw & His Orchestra - 22 Original Big-Band Recordings (1985) {Ranwood}
EAC Rip | FLAC with CUE and log | scans | 386 mb
MP3 CBR 320 kbps | RAR | 162 mb
Genre: jazz, big band

22 Original Big-Band Recordings is a 1985 collection of some early recordings from the late 1930's by Artie Shaw & His Orchestra. This was released by Ranwood and is a slightly different mastering than the "remastered" disc released by Hindsight.

Artie Shaw & His Orchestra - 22 Original Big-Band Recordings (1985) {Ranwood}

01. What Is This Thing Called Love
02. My Heart Stood Still
03. This Can't Be Love
04. Lover Come Back To Me
05. I Can't Give You Anything But Love
06. The Lambeth Walk
07. Together
08. I'm Yours
09. Small Fry
10. Softly As In A Morning Sunrise
11. Shine On Harvest Moon
12. Stardust
13. Out Of Nowhere
14. What's New
15. If I Had You
16. I Cover The Waterfront
17. Just You, Just Me
18. Carioca
19. You're Mine, You
20. Sweet Adeline
21. Rose Room
22. I'm Coming Virginia

Exact Audio Copy V1.0 beta 6 from 9. April 2015

EAC extraction logfile from 30. August 2018, 16:24

Artie Shaw & His Orchestra / 22 Original Big-Band Recordings

Used drive : TSSTcorpDVD+-RW TS-L633C Adapter: 1 ID: 0

Read mode : Secure
Utilize accurate stream : Yes
Defeat audio cache : Yes
Make use of C2 pointers : No

Read offset correction : 6
Overread into Lead-In and Lead-Out : No
Fill up missing offset samples with silence : Yes
Delete leading and trailing silent blocks : No
Null samples used in CRC calculations : Yes
Used interface : Native Win32 interface for Win NT & 2000
Gap handling : Appended to previous track

Used output format : Internal WAV Routines
Sample format : 44.100 Hz; 16 Bit; Stereo


TOC of the extracted CD

Track | Start | Length | Start sector | End sector
––––––––––––––––––––––––––––-
1 | 0:00.00 | 3:10.65 | 0 | 14314
2 | 3:10.65 | 2:28.27 | 14315 | 25441
3 | 5:39.17 | 2:22.63 | 25442 | 36154
4 | 8:02.05 | 3:23.05 | 36155 | 51384
5 | 11:25.10 | 3:25.47 | 51385 | 66806
6 | 14:50.57 | 2:23.68 | 66807 | 77599
7 | 17:14.50 | 3:01.30 | 77600 | 91204
8 | 20:16.05 | 2:37.05 | 91205 | 102984
9 | 22:53.10 | 4:00.42 | 102985 | 121026
10 | 26:53.52 | 2:37.38 | 121027 | 132839
11 | 29:31.15 | 5:00.15 | 132840 | 155354
12 | 34:31.30 | 3:44.30 | 155355 | 172184
13 | 38:15.60 | 3:20.37 | 172185 | 187221
14 | 41:36.22 | 2:56.25 | 187222 | 200446
15 | 44:32.47 | 4:11.03 | 200447 | 219274
16 | 48:43.50 | 3:10.40 | 219275 | 233564
17 | 51:54.15 | 2:33.37 | 233565 | 245076
18 | 54:27.52 | 3:59.28 | 245077 | 263029
19 | 58:27.05 | 2:54.20 | 263030 | 276099
20 | 61:21.25 | 2:39.42 | 276100 | 288066
21 | 64:00.67 | 2:42.68 | 288067 | 300284
22 | 66:43.60 | 2:26.05 | 300285 | 311239


Track 1

Filename C:\My Documents\My FLAC\Artie Shaw & His Orchestra - 22 Original Big-Band Recordings (1985) [FLAC] {Ranwood}\01 - What Is This Thing Called Love.wav

Pre-gap length 0:00:02.00

Peak level 63.2 %
Extraction speed 1.0 X
Track quality 99.9 %
Test CRC C9805F3E
Copy CRC C9805F3E
Track not present in AccurateRip database
Copy OK

Track 2

Filename C:\My Documents\My FLAC\Artie Shaw & His Orchestra - 22 Original Big-Band Recordings (1985) [FLAC] {Ranwood}\02 - My Heart Stood Still.wav

Peak level 75.7 %
Extraction speed 1.0 X
Track quality 99.9 %
Test CRC B08C8AFF
Copy CRC B08C8AFF
Track not present in AccurateRip database
Copy OK

Track 3

Filename C:\My Documents\My FLAC\Artie Shaw & His Orchestra - 22 Original Big-Band Recordings (1985) [FLAC] {Ranwood}\03 - This Can't Be Love.wav

Peak level 61.8 %
Extraction speed 1.3 X
Track quality 100.0 %
Test CRC 817EC8F4
Copy CRC 817EC8F4
Track not present in AccurateRip database
Copy OK

Track 4

Filename C:\My Documents\My FLAC\Artie Shaw & His Orchestra - 22 Original Big-Band Recordings (1985) [FLAC] {Ranwood}\04 - Lover Come Back To Me.wav

Peak level 70.5 %
Extraction speed 1.5 X
Track quality 100.0 %
Test CRC 4955BAFD
Copy CRC 4955BAFD
Track not present in AccurateRip database
Copy OK

Track 5

Filename C:\My Documents\My FLAC\Artie Shaw & His Orchestra - 22 Original Big-Band Recordings (1985) [FLAC] {Ranwood}\05 - I Can't Give You Anything But Love.wav

Peak level 51.4 %
Extraction speed 1.6 X
Track quality 100.0 %
Test CRC C7D2226E
Copy CRC C7D2226E
Track not present in AccurateRip database
Copy OK

Track 6

Filename C:\My Documents\My FLAC\Artie Shaw & His Orchestra - 22 Original Big-Band Recordings (1985) [FLAC] {Ranwood}\06 - The Lambeth Walk.wav

Peak level 62.0 %
Extraction speed 1.5 X
Track quality 100.0 %
Test CRC C5127A32
Copy CRC C5127A32
Track not present in AccurateRip database
Copy OK

Track 7

Filename C:\My Documents\My FLAC\Artie Shaw & His Orchestra - 22 Original Big-Band Recordings (1985) [FLAC] {Ranwood}\07 - Together.wav

Peak level 71.1 %
Extraction speed 1.6 X
Track quality 100.0 %
Test CRC 28B54F6B
Copy CRC 28B54F6B
Track not present in AccurateRip database
Copy OK

Track 8

Filename C:\My Documents\My FLAC\Artie Shaw & His Orchestra - 22 Original Big-Band Recordings (1985) [FLAC] {Ranwood}\08 - I'm Yours.wav

Peak level 59.6 %
Extraction speed 1.6 X
Track quality 100.0 %
Test CRC 4EA8485D
Copy CRC 4EA8485D
Track not present in AccurateRip database
Copy OK

Track 9

Filename C:\My Documents\My FLAC\Artie Shaw & His Orchestra - 22 Original Big-Band Recordings (1985) [FLAC] {Ranwood}\09 - Small Fry.wav

Peak level 68.6 %
Extraction speed 1.8 X
Track quality 100.0 %
Test CRC 46D541FE
Copy CRC 46D541FE
Track not present in AccurateRip database
Copy OK

Track 10

Filename C:\My Documents\My FLAC\Artie Shaw & His Orchestra - 22 Original Big-Band Recordings (1985) [FLAC] {Ranwood}\10 - Softly As In A Morning Sunrise.wav

Peak level 58.3 %
Extraction speed 1.8 X
Track quality 100.0 %
Test CRC E0C72807
Copy CRC E0C72807
Track not present in AccurateRip database
Copy OK

Track 11

Filename C:\My Documents\My FLAC\Artie Shaw & His Orchestra - 22 Original Big-Band Recordings (1985) [FLAC] {Ranwood}\11 - Shine On Harvest Moon.wav

Peak level 57.5 %
Extraction speed 2.1 X
Track quality 100.0 %
Test CRC A9ED8C22
Copy CRC A9ED8C22
Track not present in AccurateRip database
Copy OK

Track 12

Filename C:\My Documents\My FLAC\Artie Shaw & His Orchestra - 22 Original Big-Band Recordings (1985) [FLAC] {Ranwood}\12 - Stardust.wav

Peak level 60.3 %
Extraction speed 1.8 X
Track quality 99.9 %
Test CRC 6858563B
Copy CRC 6858563B
Track not present in AccurateRip database
Copy OK

Track 13

Filename C:\My Documents\My FLAC\Artie Shaw & His Orchestra - 22 Original Big-Band Recordings (1985) [FLAC] {Ranwood}\13 - Out Of Nowhere.wav

Peak level 57.0 %
Extraction speed 1.8 X
Track quality 99.9 %
Test CRC 1860C239
Copy CRC 1860C239
Track not present in AccurateRip database
Copy OK

Track 14

Filename C:\My Documents\My FLAC\Artie Shaw & His Orchestra - 22 Original Big-Band Recordings (1985) [FLAC] {Ranwood}\14 - What's New.wav

Peak level 45.5 %
Extraction speed 2.1 X
Track quality 100.0 %
Test CRC 80DC7B1D
Copy CRC 80DC7B1D
Track not present in AccurateRip database
Copy OK

Track 15

Filename C:\My Documents\My FLAC\Artie Shaw & His Orchestra - 22 Original Big-Band Recordings (1985) [FLAC] {Ranwood}\15 - If I Had You.wav

Peak level 74.1 %
Extraction speed 2.3 X
Track quality 100.0 %
Test CRC 47E6475A
Copy CRC 47E6475A
Track not present in AccurateRip database
Copy OK

Track 16

Filename C:\My Documents\My FLAC\Artie Shaw & His Orchestra - 22 Original Big-Band Recordings (1985) [FLAC] {Ranwood}\16 - I Cover The Waterfront.wav

Peak level 69.9 %
Extraction speed 0.4 X
Track quality 99.9 %
Test CRC 4C92E570
Copy CRC 4C92E570
Track not present in AccurateRip database
Copy OK

Track 17

Filename C:\My Documents\My FLAC\Artie Shaw & His Orchestra - 22 Original Big-Band Recordings (1985) [FLAC] {Ranwood}\17 - Just You, Just Me.wav

Peak level 58.4 %
Extraction speed 2.2 X
Track quality 100.0 %
Test CRC 89E01636
Copy CRC 89E01636
Track not present in AccurateRip database
Copy OK

Track 18

Filename C:\My Documents\My FLAC\Artie Shaw & His Orchestra - 22 Original Big-Band Recordings (1985) [FLAC] {Ranwood}\18 - Carioca.wav

Peak level 73.5 %
Extraction speed 2.1 X
Track quality 99.9 %
Test CRC DFEEA5E0
Copy CRC DFEEA5E0
Track not present in AccurateRip database
Copy OK

Track 19

Filename C:\My Documents\My FLAC\Artie Shaw & His Orchestra - 22 Original Big-Band Recordings (1985) [FLAC] {Ranwood}\19 - You're Mine, You.wav

Peak level 47.3 %
Extraction speed 2.0 X
Track quality 99.9 %
Test CRC A43C818F
Copy CRC A43C818F
Track not present in AccurateRip database
Copy OK

Track 20

Filename C:\My Documents\My FLAC\Artie Shaw & His Orchestra - 22 Original Big-Band Recordings (1985) [FLAC] {Ranwood}\20 - Sweet Adeline.wav

Peak level 56.9 %
Extraction speed 2.4 X
Track quality 100.0 %
Test CRC 611E0A3F
Copy CRC 611E0A3F
Track not present in AccurateRip database
Copy OK

Track 21

Filename C:\My Documents\My FLAC\Artie Shaw & His Orchestra - 22 Original Big-Band Recordings (1985) [FLAC] {Ranwood}\21 - Rose Room.wav

Peak level 60.0 %
Extraction speed 2.4 X
Track quality 100.0 %
Test CRC C953270E
Copy CRC C953270E
Track not present in AccurateRip database
Copy OK

Track 22

Filename C:\My Documents\My FLAC\Artie Shaw & His Orchestra - 22 Original Big-Band Recordings (1985) [FLAC] {Ranwood}\22 - I'm Coming Virginia.wav

Peak level 59.6 %
Extraction speed 2.0 X
Track quality 99.9 %
Test CRC 29F32B1A
Copy CRC 29F32B1A
Track not present in AccurateRip database
Copy OK


None of the tracks are present in the AccurateRip database

No errors occurred

End of status report

–– CUETools DB Plugin V2.1.6

[CTDB TOCID: TjYYTmjVTK.yy_Z2Lj6dLySeCVo-] found
Submit result: TjYYTmjVTK.yy_Z2Lj6dLySeCVo- has been uploaded
Track | CTDB Status
1 | (1/1) Accurately ripped
2 | (1/1) Accurately ripped
3 | (1/1) Accurately ripped
4 | (1/1) Differs in 6 samples @01:17:35
5 | (1/1) Accurately ripped
6 | (1/1) Accurately ripped
7 | (1/1) Accurately ripped
8 | (1/1) Accurately ripped
9 | (1/1) Accurately ripped
10 | (1/1) Accurately ripped
11 | (1/1) Accurately ripped
12 | (1/1) Accurately ripped
13 | (1/1) Accurately ripped
14 | (1/1) Accurately ripped
15 | (1/1) Accurately ripped
16 | (1/1) Accurately ripped
17 | (1/1) Accurately ripped
18 | (1/1) Accurately ripped
19 | (1/1) Accurately ripped
20 | (1/1) Accurately ripped
21 | (1/1) Accurately ripped
22 | (1/1) Accurately ripped
If you are sure that your rip contains errors, you can use CUETools to repair it.


==== Log checksum 2FED3212CFCFA08912BC5946C62B4D545D70CF6A77761C4E0F0600B168BAEE47 ====


Artie Shaw & His Orchestra - 22 Original Big-Band Recordings (1985) {Ranwood}