Subcategories

Wiener Philharmoniker - 50 Best Wiener Philharmoniker (2010) {3CD Warner Classics-EMI Records 5099964849324}

Posted By: ruskaval
Wiener Philharmoniker - 50 Best Wiener Philharmoniker (2010) {3CD Warner Classics-EMI Records 5099964849324}

Wiener Philharmoniker - 50 Best Wiener Philharmoniker (2010) {3CD Warner Classics-EMI Records 5099964849324}
EAC rip (secure mode) | FLAC (tracks)+CUE+LOG -> 973 Mb | MP3 @320 -> 484 Mb
Artwork @ 300 dpi (png) -> 11 Mb | 5% repair rar
© 2010 Warner Classics / EMI Records | 5099964849324
Classical / Orchestral

This is another release in EMI’s highly successful 50 BEST series. This 3CD set contains 50 tracks from the finest EMI recordings of the famous Wiener Philharmoniker, know in English as the Vienna Philharmonic Orchestra, under some of the world’s greatest conductors including Wilhelm Furtwängler, Herbert von Karajan, Rudolf Kempe, André Cluytens, Riccardo Muti and many others.

THE STRAUSS FAMILY contains some of the best-known waltzes and polkas by the inimitable Viennese composer Johann Strauss II and other members of his family. Among the waltzes are Wiener Blut (‘Vienna Blood’), Wein, Weib und Gesang (‘Wine, Women and Song’), G’schichten aus dem Wienerwald (‘Tales from the Vienna Woods’) and An der schönen, blauen Donau (‘The Blue Danube’) that was used so effectively in the film 2001: A Space Odyssey. All the works included here have been heard at the famous New Year’s Day concerts given by the Wiener Philharmoniker, which traditionally concludes with the Radetzky March, performed here live at the New Year’s Day Concert of 2000 conducted by Riccardo Muti.

ON HOLIDAY takes its name from a famous LP on which most of these pieces were originally released. The composers come from all over the world – Smetana and Dvorák from Czechoslovakia, Kodály and Lehár from Hungary, Sibelius from Finland, Ravel from France and Vivaldi from Italy – and one can imagine the Wiener Philharmoniker holidaying in all those different countries and performing some of the music by the local composers while they are there.

The last CD, called CLASSICAL MASTERS, brings together a programme by the greatest Austrian and German composers from the Classical and Romantic period, beginning with Mozart’s much-loved Eine kleine Nachtmusik. Popular works by Schubert and Mendelssohn follow, and the disc continues with one of the most instantly recognisable themes in classical music – the first movement of Beethoven’s powerful Fifth Symphony. The collection concludes with Brahms’s splendid Variations on a Theme by Haydn, popularly known as the St Anthony Variations.

Warner INFO

Conductors:
Herbert von Karajan, Claudio Abbado, Simon Rattle, Wilhelm Furtwängler, Riccardo Muti, a.o…

Track Listing

CD1 - The Strauss Family


01 - Johann Strauss II - Wiener Blut, Op. 354
02 - Johann Strauss II - Tritsch-Tratsch, Op. 214
03 - Johann Strauss II - Wein, Weib und Gesang, Op. 333
04 - Johann Strauss II - Unter Donner und Blitz, Op. 324
05 - Johann Strauss I - Spharen-klange, 'Music of Spheres', Op. 235
06 - Johann Strauss II & Johann Strauss II - Pizzicato Polka
07 - Johann Strauss II - Die Fledermaus - Overture
08 - Johann Strauss II - G'schichten aus dem Wienerwald - Walzer, Op. 325
09 - Johann Strauss II - Leichtes Blut, Op. 319
10 - Johann Strauss II - Tausend und eine Nacht - Walzer, Op. 346
11 - Johann Strauss II - Im Krapfenwald'l - Polka Francaise, Op. 336
12 - Johann Strauss II - Eljen a Magyar Polka - Polka Schnell, Op. 332
13 - Johann Strauss II - Vom Donaustrande - Polka Schnell, Op. 356
14 - Johann Strauss I - An der schonen, Blauen Donau - Walzer, Op. 314
15 - Johann Strauss I - Radetzky-Marsch, Op. 228

Wiener Philharmoniker - 50 Best Wiener Philharmoniker (2010) {3CD Warner Classics-EMI Records 5099964849324}


CD2 - On Holiday

01 - Bedrich Smetana - Ma vlast - Vltava, B. 111
02 - Jean Sibelius - Karelia Suite. Op. 11 - I. Intermezzo
03 - Jean Sibelius - Karelia Suite. Op. 11 - II. Ballade
04 - Jean Sibelius - Karelia Suite. Op. 11 - III. Alla marcia
05 - Zoltan Kodaly - Haly Janos - Suite - II. Viennese Musical Clock
06 - Zoltan Kodaly - Haly Janos - Suite - V. Intermezzo
07 - Zoltan Kodaly - Haly Janos - Suite - VI. Entrance of the Emperor and his Court
08 - Maurice Ravel - Rapsodie espagnole - Prelude a la nuit
09 - Maurice Ravel - Rapsodie espagnole - Malaguena
10 - Maurice Ravel - Rapsodie espagnole - Habenera
11 - Maurice Ravel - Rapsodie espagnole - Feria
12 - Franz Lehar - Gold und Silber - Walzer, Op. 79
13 - Antonin Dvorak - Symphony No. 9 in E Minor, Op. 95 'From the World' - II. Largo
14 - Antonio Vivaldi - The Four Seasons, Concerto No. 1 in E 'Spring' RV 269 - I. Allegro
15 - Antonio Vivaldi - The Four Seasons, Concerto No. 1 in E 'Spring' RV 269 - II. Largo
16 - Antonio Vivaldi - The Four Seasons, Concerto No. 1 in E 'Spring' RV 269 - III. Allegro

Wiener Philharmoniker - 50 Best Wiener Philharmoniker (2010) {3CD Warner Classics-EMI Records 5099964849324}


CD3 - Classical Masters

01 - Wolfgang Amadeus Mozart - Serenade No. 13 in G 'Eine kliene Nachtmusik', K.525 - I. Allegro
02 - Wolfgang Amadeus Mozart - Serenade No. 13 in G 'Eine kliene Nachtmusik', K.525 - II. Romanze (Andante)
03 - Wolfgang Amadeus Mozart - Serenade No. 13 in G 'Eine kliene Nachtmusik', K.525 - III. Menuetto (Allegretto
04 - Wolfgang Amadeus Mozart - Serenade No. 13 in G 'Eine kliene Nachtmusik', K.525 - IV. Rondo (Allegro
05 - Franz Schubert - Rosamunde Incidental Music, D. 797 - Entr'acte No. 3 in B-Flat
06 - Franz Schubert - Rosamunde Incidental Music, D. 797 - Ballet No. 2 in G
07 - Franz Schubert - Symphony No. 3 in D Major, D. 200 - III. Menuetto (Vivace) & Trio
08 - Felix Mendelssohn - Symphony No. 4 in A, Op. 90 'Italian' - IV. Saltarello. Presto
09 - Ludwig van Beethoven - Symphony No. 5 in C Minor, Op. 67 - I. Allegro con brio
10 - Johannes Brahms - Variations on a Theme by Haydn, Op 56a - Theme. Andante 'Chorale St. Antoni
11 - Johannes Brahms - Variations on a Theme by Haydn, Op 56a - Variation I. Poco piu animato
12 - Johannes Brahms - Variations on a Theme by Haydn, Op 56a - Variation II. Piu Vivace
13 - Johannes Brahms - Variations on a Theme by Haydn, Op 56a - Variation III. Con moto
14 - Johannes Brahms - Variations on a Theme by Haydn, Op 56a - Variation IV. Andante con moto
15 - Johannes Brahms - Variations on a Theme by Haydn, Op 56a - Variation V. Vivace
16 - Johannes Brahms - Variations on a Theme by Haydn, Op 56a - Variation VI. Vivace
17 - Johannes Brahms - Variations on a Theme by Haydn, Op 56a - Variation VII. Grazioso
18 - Johannes Brahms - Variations on a Theme by Haydn, Op 56a - Variation VIII. Presto non troppo
19 - Johannes Brahms - Variations on a Theme by Haydn, Op 56a - Finale. Andante

Wiener Philharmoniker - 50 Best Wiener Philharmoniker (2010) {3CD Warner Classics-EMI Records 5099964849324}


Exact Audio Copy V1.3 from 2. September 2016

EAC extraction logfile from 25. December 2017, 1:47

Wiener Philharmoniker / 50 Best Wiener Philharmoniker

Used drive : ASUS DRW-24B1ST j Adapter: 1 ID: 1

Read mode : Secure
Utilize accurate stream : Yes
Defeat audio cache : Yes
Make use of C2 pointers : No

Read offset correction : 6
Overread into Lead-In and Lead-Out : No
Fill up missing offset samples with silence : Yes
Delete leading and trailing silent blocks : No
Null samples used in CRC calculations : Yes
Used interface : Native Win32 interface for Win NT & 2000
Gap handling : Appended to previous track

Used output format : User Defined Encoder
Selected bitrate : 128 kBit/s
Quality : High
Add ID3 tag : No
Command line compressor : C:\Program Files (x86)\Exact Audio Copy\Flac\flac.exe
Additional command line options : -8 -V -T "ARTIST=%artist%" -T "TITLE=%title%" -T "ALBUM=%albumtitle%" -T "DATE=%year%" -T "TRACKNUMBER=%tracknr%" -T "TOTALTRACKS=%numtracks%" -T "GENRE=%genre%" -T "ALBUMARTIST=%albumartist%" -T "ALBUM ARTIST=%albumartist%" -T "COMMENT=EAC Secure Mode, Test & Copy, AccurateRip, FLAC -8" %source%


TOC of the extracted CD

Track | Start | Length | Start sector | End sector
––––––––––––––––––––––––––––-
1 | 0:00.00 | 5:51.27 | 0 | 26351
2 | 5:51.27 | 2:34.09 | 26352 | 37910
3 | 8:25.36 | 4:09.18 | 37911 | 56603
4 | 12:34.54 | 3:05.37 | 56604 | 70515
5 | 15:40.16 | 8:06.65 | 70516 | 107030
6 | 23:47.06 | 2:52.13 | 107031 | 119943
7 | 26:39.19 | 8:17.25 | 119944 | 157243
8 | 34:56.44 | 8:50.21 | 157244 | 197014
9 | 43:46.65 | 2:38.49 | 197015 | 208913
10 | 46:25.39 | 6:57.45 | 208914 | 240233
11 | 53:23.09 | 4:24.52 | 240234 | 260085
12 | 57:47.61 | 2:41.44 | 260086 | 272204
13 | 60:29.30 | 3:00.67 | 272205 | 285771
14 | 63:30.22 | 10:03.65 | 285772 | 331061
15 | 73:34.12 | 3:35.30 | 331062 | 347216


Track 1

Filename D:\_Post2\EMI_50\CD1\01 - Johann Strauss II - Wiener Blut, Op. 354.wav

Pre-gap length 0:00:02.00

Peak level 76.5 %
Extraction speed 5.9 X
Track quality 100.0 %
Test CRC F079A84D
Copy CRC F079A84D
Accurately ripped (confidence 9) [8D25D4AC] (AR v2)
Copy OK

Track 2

Filename D:\_Post2\EMI_50\CD1\02 - Johann Strauss II - Tritsch-Tratsch, Op. 214.wav

Pre-gap length 0:00:03.60

Peak level 74.5 %
Extraction speed 5.7 X
Track quality 100.0 %
Test CRC F5F05375
Copy CRC F5F05375
Accurately ripped (confidence 9) [A4D793C4] (AR v2)
Copy OK

Track 3

Filename D:\_Post2\EMI_50\CD1\03 - Johann Strauss II - Wein, Weib und Gesang, Op. 333.wav

Pre-gap length 0:00:03.68

Peak level 67.4 %
Extraction speed 6.6 X
Track quality 100.0 %
Test CRC 23FC5DB4
Copy CRC 23FC5DB4
Accurately ripped (confidence 9) [A22D48B8] (AR v2)
Copy OK

Track 4

Filename D:\_Post2\EMI_50\CD1\04 - Johann Strauss II - Unter Donner und Blitz, Op. 324.wav

Pre-gap length 0:00:04.44

Peak level 83.7 %
Extraction speed 6.7 X
Track quality 100.0 %
Test CRC DD1B5C79
Copy CRC DD1B5C79
Accurately ripped (confidence 9) [2D588306] (AR v2)
Copy OK

Track 5

Filename D:\_Post2\EMI_50\CD1\05 - Johann Strauss I - Spharen-klange, 'Music of Spheres', Op. 235.wav

Pre-gap length 0:00:05.08

Peak level 67.9 %
Extraction speed 8.0 X
Track quality 100.0 %
Test CRC B44E6470
Copy CRC B44E6470
Accurately ripped (confidence 9) [8FE0FF54] (AR v2)
Copy OK

Track 6

Filename D:\_Post2\EMI_50\CD1\06 - Johann Strauss II & Johann Strauss II - Pizzicato Polka.wav

Pre-gap length 0:00:04.46

Peak level 64.1 %
Extraction speed 7.6 X
Track quality 100.0 %
Test CRC 0274641E
Copy CRC 0274641E
Accurately ripped (confidence 9) [AE7EF8F0] (AR v2)
Copy OK

Track 7

Filename D:\_Post2\EMI_50\CD1\07 - Johann Strauss II - Die Fledermaus - Overture.wav

Pre-gap length 0:00:05.51

Peak level 99.7 %
Extraction speed 8.1 X
Track quality 99.9 %
Test CRC CBD2A801
Copy CRC CBD2A801
Accurately ripped (confidence 9) [A772A22E] (AR v2)
Copy OK

Track 8

Filename D:\_Post2\EMI_50\CD1\08 - Johann Strauss II - G'schichten aus dem Wienerwald - Walzer, Op. 325.wav

Pre-gap length 0:00:04.15

Peak level 93.5 %
Extraction speed 9.6 X
Track quality 100.0 %
Test CRC 606AE7B8
Copy CRC 606AE7B8
Accurately ripped (confidence 9) [B6816338] (AR v2)
Copy OK

Track 9

Filename D:\_Post2\EMI_50\CD1\09 - Johann Strauss II - Leichtes Blut, Op. 319.wav

Pre-gap length 0:00:04.31

Peak level 84.9 %
Extraction speed 8.8 X
Track quality 100.0 %
Test CRC 6837545A
Copy CRC 6837545A
Accurately ripped (confidence 9) [613BD60C] (AR v2)
Copy OK

Track 10

Filename D:\_Post2\EMI_50\CD1\10 - Johann Strauss II - Tausend und eine Nacht - Walzer, Op. 346.wav

Pre-gap length 0:00:04.64

Peak level 81.5 %
Extraction speed 10.2 X
Track quality 100.0 %
Test CRC D1908D59
Copy CRC D1908D59
Accurately ripped (confidence 9) [A665556C] (AR v2)
Copy OK

Track 11

Filename D:\_Post2\EMI_50\CD1\11 - Johann Strauss II - Im Krapfenwald'l - Polka Francaise, Op. 336.wav

Pre-gap length 0:00:04.11

Peak level 92.8 %
Extraction speed 10.2 X
Track quality 100.0 %
Test CRC 7BEC8777
Copy CRC 7BEC8777
Accurately ripped (confidence 9) [DE881806] (AR v2)
Copy OK

Track 12

Filename D:\_Post2\EMI_50\CD1\12 - Johann Strauss II - Eljen a Magyar Polka - Polka Schnell, Op. 332.wav

Pre-gap length 0:00:03.51

Peak level 95.7 %
Extraction speed 9.5 X
Track quality 100.0 %
Test CRC 29917A88
Copy CRC 29917A88
Accurately ripped (confidence 9) [CD075AFB] (AR v2)
Copy OK

Track 13

Filename D:\_Post2\EMI_50\CD1\13 - Johann Strauss II - Vom Donaustrande - Polka Schnell, Op. 356.wav

Peak level 94.3 %
Extraction speed 7.7 X
Track quality 99.9 %
Test CRC D5B51B7B
Copy CRC D5B51B7B
Accurately ripped (confidence 9) [2C80291B] (AR v2)
Copy OK

Track 14

Filename D:\_Post2\EMI_50\CD1\14 - Johann Strauss I - An der schonen, Blauen Donau - Walzer, Op. 314.wav

Peak level 92.0 %
Extraction speed 11.6 X
Track quality 100.0 %
Test CRC D4A7EED1
Copy CRC D4A7EED1
Accurately ripped (confidence 9) [7E4BFBAA] (AR v2)
Copy OK

Track 15

Filename D:\_Post2\EMI_50\CD1\15 - Johann Strauss I - Radetzky-Marsch, Op. 228.wav

Peak level 98.8 %
Extraction speed 10.9 X
Track quality 100.0 %
Test CRC 7C8B0A5D
Copy CRC 7C8B0A5D
Accurately ripped (confidence 9) [66A28A80] (AR v2)
Copy OK


All tracks accurately ripped

No errors occurred

End of status report

–– CUETools DB Plugin V2.1.6

[CTDB TOCID: f1JY87YX.1foiKa9khYX8wSImRA-] found
Submit result: f1JY87YX.1foiKa9khYX8wSImRA- has been confirmed
Track | CTDB Status
1 | (21/21) Accurately ripped
2 | (21/21) Accurately ripped
3 | (21/21) Accurately ripped
4 | (21/21) Accurately ripped
5 | (21/21) Accurately ripped
6 | (21/21) Accurately ripped
7 | (21/21) Accurately ripped
8 | (21/21) Accurately ripped
9 | (21/21) Accurately ripped
10 | (21/21) Accurately ripped
11 | (21/21) Accurately ripped
12 | (21/21) Accurately ripped
13 | (21/21) Accurately ripped
14 | (20/21) Accurately ripped
15 | (20/21) Accurately ripped


==== Log checksum D325E738296CA2823F2714D5725B47AA9B5FFAA45F393C959A894900CFCF14B6 ====
Exact Audio Copy V1.3 from 2. September 2016

EAC extraction logfile from 24. December 2017, 22:54

Wiener Philharmoniker / 50 Best Wiener Philharmoniker

Used drive : ASUS DRW-24B1ST j Adapter: 1 ID: 1

Read mode : Secure
Utilize accurate stream : Yes
Defeat audio cache : Yes
Make use of C2 pointers : No

Read offset correction : 6
Overread into Lead-In and Lead-Out : No
Fill up missing offset samples with silence : Yes
Delete leading and trailing silent blocks : No
Null samples used in CRC calculations : Yes
Used interface : Native Win32 interface for Win NT & 2000
Gap handling : Appended to previous track

Used output format : User Defined Encoder
Selected bitrate : 128 kBit/s
Quality : High
Add ID3 tag : No
Command line compressor : C:\Program Files (x86)\Exact Audio Copy\Flac\flac.exe
Additional command line options : -8 -V -T "ARTIST=%artist%" -T "TITLE=%title%" -T "ALBUM=%albumtitle%" -T "DATE=%year%" -T "TRACKNUMBER=%tracknr%" -T "TOTALTRACKS=%numtracks%" -T "GENRE=%genre%" -T "ALBUMARTIST=%albumartist%" -T "ALBUM ARTIST=%albumartist%" -T "COMMENT=EAC Secure Mode, Test & Copy, AccurateRip, FLAC -8" %source%


TOC of the extracted CD

Track | Start | Length | Start sector | End sector
––––––––––––––––––––––––––––-
1 | 0:00.00 | 5:48.65 | 0 | 26164
2 | 5:48.65 | 3:12.41 | 26165 | 40605
3 | 9:01.31 | 7:14.10 | 40606 | 73165
4 | 16:15.41 | 4:15.56 | 73166 | 92346
5 | 20:31.22 | 2:18.32 | 92347 | 102728
6 | 22:49.54 | 4:58.52 | 102729 | 125130
7 | 27:48.31 | 3:12.47 | 125131 | 139577
8 | 31:01.03 | 4:29.04 | 139578 | 159756
9 | 35:30.07 | 2:02.74 | 159757 | 168980
10 | 37:33.06 | 2:39.37 | 168981 | 180942
11 | 40:12.43 | 5:50.03 | 180943 | 207195
12 | 46:02.46 | 9:00.03 | 207196 | 247698
13 | 55:02.49 | 4:34.13 | 247699 | 268261
14 | 59:36.62 | 3:18.42 | 268262 | 283153
15 | 62:55.29 | 3:05.71 | 283154 | 297099
16 | 66:01.25 | 4:35.46 | 297100 | 317770


Track 1

Filename D:\_Post2\EMI_50\CD2\01 - Bedrich Smetana - Ma vlast - Vltava, B. 111.wav

Pre-gap length 0:00:02.00

Peak level 83.9 %
Extraction speed 5.4 X
Track quality 100.0 %
Test CRC 0376D547
Copy CRC 0376D547
Accurately ripped (confidence 10) [6B51AE76] (AR v2)
Copy OK

Track 2

Filename D:\_Post2\EMI_50\CD2\02 - Jean Sibelius - Karelia Suite. Op. 11 - I. Intermezzo.wav

Pre-gap length 0:00:04.09

Peak level 96.5 %
Extraction speed 4.5 X
Track quality 99.9 %
Test CRC 4AD0985B
Copy CRC 4AD0985B
Accurately ripped (confidence 10) [2D6082B8] (AR v2)
Copy OK

Track 3

Filename D:\_Post2\EMI_50\CD2\03 - Jean Sibelius - Karelia Suite. Op. 11 - II. Ballade.wav

Peak level 60.6 %
Extraction speed 6.7 X
Track quality 100.0 %
Test CRC CE3BF777
Copy CRC CE3BF777
Accurately ripped (confidence 10) [4DDAC334] (AR v2)
Copy OK

Track 4

Filename D:\_Post2\EMI_50\CD2\04 - Jean Sibelius - Karelia Suite. Op. 11 - III. Alla marcia.wav

Peak level 98.8 %
Extraction speed 6.9 X
Track quality 100.0 %
Test CRC 55AD879D
Copy CRC 55AD879D
Accurately ripped (confidence 10) [E3CB2665] (AR v2)
Copy OK

Track 5

Filename D:\_Post2\EMI_50\CD2\05 - Zoltan Kodaly - Haly Janos - Suite - II. Viennese Musical Clock.wav

Pre-gap length 0:00:05.66

Peak level 62.7 %
Extraction speed 4.9 X
Track quality 99.9 %
Test CRC 5CC0473F
Copy CRC 5CC0473F
Accurately ripped (confidence 10) [09470539] (AR v2)
Copy OK

Track 6

Filename D:\_Post2\EMI_50\CD2\06 - Zoltan Kodaly - Haly Janos - Suite - V. Intermezzo.wav

Peak level 93.8 %
Extraction speed 7.8 X
Track quality 100.0 %
Test CRC 895D4783
Copy CRC 895D4783
Accurately ripped (confidence 10) [998D8638] (AR v2)
Copy OK

Track 7

Filename D:\_Post2\EMI_50\CD2\07 - Zoltan Kodaly - Haly Janos - Suite - VI. Entrance of the Emperor and his Court.wav

Peak level 92.2 %
Extraction speed 7.7 X
Track quality 100.0 %
Test CRC DAC59D0B
Copy CRC DAC59D0B
Accurately ripped (confidence 10) [2D0A7B90] (AR v2)
Copy OK

Track 8

Filename D:\_Post2\EMI_50\CD2\08 - Maurice Ravel - Rapsodie espagnole - Prelude a la nuit.wav

Pre-gap length 0:00:02.59

Peak level 51.1 %
Extraction speed 8.2 X
Track quality 100.0 %
Test CRC 41297BDB
Copy CRC 41297BDB
Accurately ripped (confidence 10) [784ADE47] (AR v2)
Copy OK

Track 9

Filename D:\_Post2\EMI_50\CD2\09 - Maurice Ravel - Rapsodie espagnole - Malaguena.wav

Peak level 70.2 %
Extraction speed 7.4 X
Track quality 100.0 %
Test CRC 8B17AA9A
Copy CRC 8B17AA9A
Accurately ripped (confidence 10) [B74C6A9A] (AR v2)
Copy OK

Track 10

Filename D:\_Post2\EMI_50\CD2\10 - Maurice Ravel - Rapsodie espagnole - Habenera.wav

Peak level 37.3 %
Extraction speed 8.0 X
Track quality 100.0 %
Test CRC 4CD16438
Copy CRC 4CD16438
Accurately ripped (confidence 10) [4F29B7C2] (AR v2)
Copy OK

Track 11

Filename D:\_Post2\EMI_50\CD2\11 - Maurice Ravel - Rapsodie espagnole - Feria.wav

Peak level 74.4 %
Extraction speed 9.2 X
Track quality 100.0 %
Test CRC E403CB75
Copy CRC E403CB75
Accurately ripped (confidence 10) [3B822000] (AR v2)
Copy OK

Track 12

Filename D:\_Post2\EMI_50\CD2\12 - Franz Lehar - Gold und Silber - Walzer, Op. 79.wav

Pre-gap length 0:00:03.32

Peak level 53.4 %
Extraction speed 9.7 X
Track quality 100.0 %
Test CRC FD795BA2
Copy CRC FD795BA2
Accurately ripped (confidence 10) [F94E66BC] (AR v2)
Copy OK

Track 13

Filename D:\_Post2\EMI_50\CD2\13 - Antonin Dvorak - Symphony No. 9 in E Minor, Op. 95 'From the World' - II. Largo.wav

Pre-gap length 0:00:05.48

Peak level 65.3 %
Extraction speed 9.2 X
Track quality 100.0 %
Test CRC E5AE7C98
Copy CRC E5AE7C98
Accurately ripped (confidence 10) [0862B4B3] (AR v2)
Copy OK

Track 14

Filename D:\_Post2\EMI_50\CD2\14 - Antonio Vivaldi - The Four Seasons, Concerto No. 1 in E 'Spring' RV 269 - I. Allegro.wav

Pre-gap length 0:00:05.22

Peak level 71.0 %
Extraction speed 7.6 X
Track quality 99.9 %
Test CRC E80EBB8C
Copy CRC E80EBB8C
Accurately ripped (confidence 10) [B6677D23] (AR v2)
Copy OK

Track 15

Filename D:\_Post2\EMI_50\CD2\15 - Antonio Vivaldi - The Four Seasons, Concerto No. 1 in E 'Spring' RV 269 - II. Largo.wav

Peak level 12.9 %
Extraction speed 9.5 X
Track quality 100.0 %
Test CRC 3E085706
Copy CRC 3E085706
Accurately ripped (confidence 10) [7DABAB75] (AR v2)
Copy OK

Track 16

Filename D:\_Post2\EMI_50\CD2\16 - Antonio Vivaldi - The Four Seasons, Concerto No. 1 in E 'Spring' RV 269 - III. Allegro.wav

Peak level 51.7 %
Extraction speed 10.4 X
Track quality 100.0 %
Test CRC 687AABCA
Copy CRC 687AABCA
Accurately ripped (confidence 10) [A8204E33] (AR v2)
Copy OK


All tracks accurately ripped

No errors occurred

End of status report

–– CUETools DB Plugin V2.1.6

[CTDB TOCID: B278O6tqiToRvUhex6sbC9saVNI-] found
Submit result: B278O6tqiToRvUhex6sbC9saVNI- has been confirmed
Track | CTDB Status
1 | (20/20) Accurately ripped
2 | (20/20) Accurately ripped
3 | (20/20) Accurately ripped
4 | (20/20) Accurately ripped
5 | (20/20) Accurately ripped
6 | (20/20) Accurately ripped
7 | (20/20) Accurately ripped
8 | (19/20) Accurately ripped
9 | (20/20) Accurately ripped
10 | (20/20) Accurately ripped
11 | (20/20) Accurately ripped
12 | (19/20) Accurately ripped
13 | (20/20) Accurately ripped
14 | (20/20) Accurately ripped
15 | (20/20) Accurately ripped
16 | (18/20) Accurately ripped


==== Log checksum AF5C302282A1AFC5D5648C866348A2F654ED143D5CF1ADEF4719A078A7482561 ====
Exact Audio Copy V1.3 from 2. September 2016

EAC extraction logfile from 26. December 2017, 17:28

Wiener Philharmoniker / 50 Best Wiener Philharmoniker

Used drive : ASUS DRW-24B1ST j Adapter: 1 ID: 1

Read mode : Secure
Utilize accurate stream : Yes
Defeat audio cache : Yes
Make use of C2 pointers : No

Read offset correction : 6
Overread into Lead-In and Lead-Out : No
Fill up missing offset samples with silence : Yes
Delete leading and trailing silent blocks : No
Null samples used in CRC calculations : Yes
Used interface : Native Win32 interface for Win NT & 2000
Gap handling : Appended to previous track

Used output format : User Defined Encoder
Selected bitrate : 128 kBit/s
Quality : High
Add ID3 tag : No
Command line compressor : C:\Program Files (x86)\Exact Audio Copy\Flac\flac.exe
Additional command line options : -8 -V -T "ARTIST=%artist%" -T "TITLE=%title%" -T "ALBUM=%albumtitle%" -T "DATE=%year%" -T "TRACKNUMBER=%tracknr%" -T "TOTALTRACKS=%numtracks%" -T "GENRE=%genre%" -T "ALBUMARTIST=%albumartist%" -T "ALBUM ARTIST=%albumartist%" -T "COMMENT=EAC Secure Mode, Test & Copy, AccurateRip, FLAC -8" %source%


TOC of the extracted CD

Track | Start | Length | Start sector | End sector
––––––––––––––––––––––––––––-
1 | 0:00.00 | 5:59.12 | 0 | 26936
2 | 5:59.12 | 5:45.31 | 26937 | 52842
3 | 11:44.43 | 2:05.19 | 52843 | 62236
4 | 13:49.62 | 3:35.43 | 62237 | 78404
5 | 17:25.30 | 7:02.21 | 78405 | 110075
6 | 24:27.51 | 5:00.20 | 110076 | 132595
7 | 29:27.71 | 3:49.64 | 132596 | 149834
8 | 33:17.60 | 5:43.03 | 149835 | 175562
9 | 39:00.63 | 7:16.24 | 175563 | 208286
10 | 46:17.12 | 2:05.52 | 208287 | 217713
11 | 48:22.64 | 1:19.70 | 217714 | 223708
12 | 49:42.59 | 0:59.20 | 223709 | 228153
13 | 50:42.04 | 1:38.65 | 228154 | 235568
14 | 52:20.69 | 2:03.31 | 235569 | 244824
15 | 54:24.25 | 0:56.54 | 244825 | 249078
16 | 55:21.04 | 1:28.50 | 249079 | 255728
17 | 56:49.54 | 2:51.12 | 255729 | 268565
18 | 59:40.66 | 1:00.60 | 268566 | 273125
19 | 60:41.51 | 4:01.70 | 273126 | 291270


Track 1

Filename D:\_Post2\EMI_50\CD3\01 - Wolfgang Amadeus Mozart - Serenade No. 13 in G 'Eine kliene Nachtmusik', K.525 - I. Allegro.wav

Pre-gap length 0:00:02.00

Peak level 54.7 %
Extraction speed 5.3 X
Track quality 100.0 %
Test CRC 82C70861
Copy CRC 82C70861
Accurately ripped (confidence 1) [B3590099] (AR v2)
Copy OK

Track 2

Filename D:\_Post2\EMI_50\CD3\02 - Wolfgang Amadeus Mozart - Serenade No. 13 in G 'Eine kliene Nachtmusik', K.525 - II. Romanze (Andante).wav

Peak level 46.7 %
Extraction speed 6.0 X
Track quality 100.0 %
Test CRC EBAB2EEA
Copy CRC EBAB2EEA
Accurately ripped (confidence 1) [7ACAF32E] (AR v2)
Copy OK

Track 3

Filename D:\_Post2\EMI_50\CD3\03 - Wolfgang Amadeus Mozart - Serenade No. 13 in G 'Eine kliene Nachtmusik', K.525 - III. Menuetto (Allegretto.wav

Peak level 55.6 %
Extraction speed 5.6 X
Track quality 100.0 %
Test CRC FAD63934
Copy CRC FAD63934
Accurately ripped (confidence 1) [6A73F5E7] (AR v2)
Copy OK

Track 4

Filename D:\_Post2\EMI_50\CD3\04 - Wolfgang Amadeus Mozart - Serenade No. 13 in G 'Eine kliene Nachtmusik', K.525 - IV. Rondo (Allegro.wav

Peak level 63.0 %
Extraction speed 6.5 X
Track quality 100.0 %
Test CRC B2D71E62
Copy CRC B2D71E62
Accurately ripped (confidence 1) [60922455] (AR v2)
Copy OK

Track 5

Filename D:\_Post2\EMI_50\CD3\05 - Franz Schubert - Rosamunde Incidental Music, D. 797 - Entr'acte No. 3 in B-Flat.wav

Pre-gap length 0:00:04.21

Peak level 54.4 %
Extraction speed 6.7 X
Track quality 99.9 %
Test CRC DE3EC231
Copy CRC DE3EC231
Accurately ripped (confidence 1) [A8A60E16] (AR v2)
Copy OK

Track 6

Filename D:\_Post2\EMI_50\CD3\06 - Franz Schubert - Rosamunde Incidental Music, D. 797 - Ballet No. 2 in G.wav

Peak level 62.2 %
Extraction speed 7.9 X
Track quality 100.0 %
Test CRC 70DB500E
Copy CRC 70DB500E
Accurately ripped (confidence 1) [87136D10] (AR v2)
Copy OK

Track 7

Filename D:\_Post2\EMI_50\CD3\07 - Franz Schubert - Symphony No. 3 in D Major, D. 200 - III. Menuetto (Vivace) & Trio.wav

Pre-gap length 0:00:04.22

Peak level 88.7 %
Extraction speed 8.0 X
Track quality 100.0 %
Test CRC 7F41EECE
Copy CRC 7F41EECE
Accurately ripped (confidence 1) [C774D9C7] (AR v2)
Copy OK

Track 8

Filename D:\_Post2\EMI_50\CD3\08 - Felix Mendelssohn - Symphony No. 4 in A, Op. 90 'Italian' - IV. Saltarello. Presto.wav

Pre-gap length 0:00:04.40

Peak level 72.9 %
Extraction speed 8.7 X
Track quality 100.0 %
Test CRC 4C389330
Copy CRC 4C389330
Accurately ripped (confidence 1) [75D98E9A] (AR v2)
Copy OK

Track 9

Filename D:\_Post2\EMI_50\CD3\09 - Ludwig van Beethoven - Symphony No. 5 in C Minor, Op. 67 - I. Allegro con brio.wav

Pre-gap length 0:00:04.42

Peak level 99.7 %
Extraction speed 9.5 X
Track quality 100.0 %
Test CRC FBBE6D44
Copy CRC FBBE6D44
Accurately ripped (confidence 1) [DFCCA1E0] (AR v2)
Copy OK

Track 10

Filename D:\_Post2\EMI_50\CD3\10 - Johannes Brahms - Variations on a Theme by Haydn, Op 56a - Theme. Andante 'Chorale St. Antoni.wav

Pre-gap length 0:00:02.68

Peak level 40.9 %
Extraction speed 8.3 X
Track quality 100.0 %
Test CRC 67201497
Copy CRC 67201497
Accurately ripped (confidence 1) [995AAEDF] (AR v2)
Copy OK

Track 11

Filename D:\_Post2\EMI_50\CD3\11 - Johannes Brahms - Variations on a Theme by Haydn, Op 56a - Variation I. Poco piu animato.wav

Peak level 45.9 %
Extraction speed 7.5 X
Track quality 100.0 %
Test CRC C1288925
Copy CRC C1288925
Accurately ripped (confidence 1) [55C8284A] (AR v2)
Copy OK

Track 12

Filename D:\_Post2\EMI_50\CD3\12 - Johannes Brahms - Variations on a Theme by Haydn, Op 56a - Variation II. Piu Vivace.wav

Peak level 70.6 %
Extraction speed 6.8 X
Track quality 100.0 %
Test CRC 345CD011
Copy CRC 345CD011
Accurately ripped (confidence 1) [C0E880F1] (AR v2)
Copy OK

Track 13

Filename D:\_Post2\EMI_50\CD3\13 - Johannes Brahms - Variations on a Theme by Haydn, Op 56a - Variation III. Con moto.wav

Peak level 33.2 %
Extraction speed 8.0 X
Track quality 100.0 %
Test CRC 0655A2F5
Copy CRC 0655A2F5
Accurately ripped (confidence 1) [AA173C21] (AR v2)
Copy OK

Track 14

Filename D:\_Post2\EMI_50\CD3\14 - Johannes Brahms - Variations on a Theme by Haydn, Op 56a - Variation IV. Andante con moto.wav

Peak level 42.2 %
Extraction speed 8.3 X
Track quality 100.0 %
Test CRC A9AD499C
Copy CRC A9AD499C
Accurately ripped (confidence 1) [C669AA82] (AR v2)
Copy OK

Track 15

Filename D:\_Post2\EMI_50\CD3\15 - Johannes Brahms - Variations on a Theme by Haydn, Op 56a - Variation V. Vivace.wav

Peak level 42.7 %
Extraction speed 6.8 X
Track quality 100.0 %
Test CRC CA5750F4
Copy CRC CA5750F4
Accurately ripped (confidence 1) [E72658F7] (AR v2)
Copy OK

Track 16

Filename D:\_Post2\EMI_50\CD3\16 - Johannes Brahms - Variations on a Theme by Haydn, Op 56a - Variation VI. Vivace.wav

Pre-gap length 0:00:00.01

Peak level 94.6 %
Extraction speed 7.6 X
Track quality 100.0 %
Test CRC FAE81135
Copy CRC FAE81135
Accurately ripped (confidence 1) [FFD172EE] (AR v2)
Copy OK

Track 17

Filename D:\_Post2\EMI_50\CD3\17 - Johannes Brahms - Variations on a Theme by Haydn, Op 56a - Variation VII. Grazioso.wav

Peak level 47.2 %
Extraction speed 9.3 X
Track quality 100.0 %
Test CRC C43A6A9E
Copy CRC C43A6A9E
Accurately ripped (confidence 1) [CDE6AE68] (AR v2)
Copy OK

Track 18

Filename D:\_Post2\EMI_50\CD3\18 - Johannes Brahms - Variations on a Theme by Haydn, Op 56a - Variation VIII. Presto non troppo.wav

Peak level 20.7 %
Extraction speed 7.1 X
Track quality 100.0 %
Test CRC 22029149
Copy CRC 22029149
Accurately ripped (confidence 1) [0079F75E] (AR v2)
Copy OK

Track 19

Filename D:\_Post2\EMI_50\CD3\19 - Johannes Brahms - Variations on a Theme by Haydn, Op 56a - Finale. Andante.wav

Peak level 89.7 %
Extraction speed 10.1 X
Track quality 100.0 %
Test CRC 53717BAA
Copy CRC 53717BAA
Accurately ripped (confidence 1) [45711871] (AR v2)
Copy OK


All tracks accurately ripped

No errors occurred

End of status report

–– CUETools DB Plugin V2.1.6

[CTDB TOCID: yWB2W0Ix54MNW1BZzJihrM.BZ5A-] found
Submit result: yWB2W0Ix54MNW1BZzJihrM.BZ5A- has been confirmed
Track | CTDB Status
1 | (1/2) Accurately ripped, or (1/2) differs in 112 samples @00:02:48,00:02:65,00:04:16,00:04:32-00:04:33,00:04:49-00:04:50,00:04:58,00:05:17,00:05:41,00:05:50,00:05:58-00:05:59,00:05:67,00:06:09,00:06:26,00:06:34-00:06:43,00:06:51,00:06:59,00:06:67-00:06:68,00:07:10,00:09:03,00:09:36-00:09:37,00:09:70-00:09:71,00:12:48,00:17:37,00:21:33
2 | (2/2) Accurately ripped
3 | (2/2) Accurately ripped
4 | (2/2) Accurately ripped
5 | (1/2) Accurately ripped, or (1/2) differs in 3 samples @03:23:25
6 | (2/2) Accurately ripped
7 | (2/2) Accurately ripped
8 | (2/2) Accurately ripped
9 | (2/2) Accurately ripped
10 | (1/2) Accurately ripped, or (1/2) differs in 30 samples @00:21:02,00:40:02,00:54:20,01:09:16,01:16:61,01:18:32,01:20:03,01:44:74,01:57:37,01:59:08,02:00:55,02:05:45
11 | (1/2) Accurately ripped, or (1/2) differs in 5 samples @00:02:35,00:15:01,00:15:35
12 | (2/2) Accurately ripped
13 | (2/2) Accurately ripped
14 | (2/2) Accurately ripped
15 | (2/2) Accurately ripped
16 | (2/2) Accurately ripped
17 | (2/2) Accurately ripped
18 | (2/2) Accurately ripped
19 | (2/2) Accurately ripped


==== Log checksum DAAF0329B277F0626EC22C3B642FA7983854F1F43F2EAD5897B7BA5B02589987 ====



Wiener Philharmoniker - 50 Best Wiener Philharmoniker (2010) {3CD Warner Classics-EMI Records 5099964849324}



===