Tags
Language
Tags

Stephane Grappelli - To Django (1987) {Accord} **[RE-UP]**

Posted By: TestTickles
Stephane Grappelli - To Django (1987) {Accord} **[RE-UP]**

Stephane Grappelli - To Django (1987) {Accord}
EAC Rip | FLAC with CUE and log | scans | 314 mb
MP3 CBR 320kbps | RAR | 145 mb
Genre: jazz

To Django is a 1987 album by violinist Stephane Grappelli. Originally recorded and released in 1972 in France as Hommage A Django Reinhardt, this was released fifteen years later on the Accord label, also in France.

Stephane Grappelli - To Django (1987) {Accord} **[RE-UP]**

01. Djangology
02. Sweet Chorus
03. Swing 39
04. Minor Swing
05. Venez Donc Chez Moi
06. Nuages
07. Fantaisie
08. Dark Eyes
09. Tears
10. Avallon
11. Manoir De Mes Reves
12. Clopin-Clopant
13. Daphne
14. Blues
15. Swing Guitar
16. Are You In The Moon

Stephane Grappelli-violin
Ernie Cranenbuyrgh-guitar
Lennie Bush-bass
Chris Karan-drums
Alan Clare-piano (1, 3, 7-8, 12-16), electric piano (2, 5-6 & 9)
Marc Hemmeler-piano (track 10), electric piano (tracks 4 & 11)


**RE-UP**

https://avxhm.se/music/5T3PH4N3GR4PP3LLl-TD_lgB7MPEFL4C.html

{Accord}


EAC extraction logfile from 3. March 2017, 1:50 for CD
Stephane Grappelli / To Django

Used drive : TSSTcorpDVD+-RW TS-H653B Adapter: 2 ID: 0
Read mode : Secure with NO C2, accurate stream, disable cache
Read offset correction : 6
Overread into Lead-In and Lead-Out : No

Used output format : Internal WAV Routines
44.100 Hz; 16 Bit; Stereo

Other options :
Fill up missing offset samples with silence : Yes
Delete leading and trailing silent blocks : No
Native Win32 interface for Win NT & 2000


Track 1
Filename C:\Documents and Settings\Desktop\Stephane Grappelli - To Django (1987) [FLAC] {Accord}\01 - Djangology.wav

Pre-gap length 0:00:02.00

Peak level 88.3 %
Track quality 100.0 %
Test CRC 90F6C4A4
Copy CRC 90F6C4A4
Copy OK

Track 2
Filename C:\Documents and Settings\Desktop\Stephane Grappelli - To Django (1987) [FLAC] {Accord}\02 - Sweet Chorus.wav

Pre-gap length 0:00:02.40

Peak level 54.6 %
Track quality 100.0 %
Test CRC CEE38C97
Copy CRC CEE38C97
Copy OK

Track 3
Filename C:\Documents and Settings\Desktop\Stephane Grappelli - To Django (1987) [FLAC] {Accord}\03 - Swing 39.wav

Pre-gap length 0:00:02.62

Peak level 91.6 %
Track quality 100.0 %
Test CRC A4DACC0F
Copy CRC A4DACC0F
Copy OK

Track 4
Filename C:\Documents and Settings\Desktop\Stephane Grappelli - To Django (1987) [FLAC] {Accord}\04 - Minor Swing.wav

Pre-gap length 0:00:03.09

Peak level 96.8 %
Track quality 100.0 %
Test CRC 320BA3EB
Copy CRC 320BA3EB
Copy OK

Track 5
Filename C:\Documents and Settings\Desktop\Stephane Grappelli - To Django (1987) [FLAC] {Accord}\05 - Venez Donc Chez Moi.wav

Pre-gap length 0:00:04.09

Peak level 85.6 %
Track quality 100.0 %
Test CRC 650955E6
Copy CRC 650955E6
Copy OK

Track 6
Filename C:\Documents and Settings\Desktop\Stephane Grappelli - To Django (1987) [FLAC] {Accord}\06 - Nuages.wav

Pre-gap length 0:00:02.86

Peak level 53.2 %
Track quality 99.9 %
Test CRC E20E9428
Copy CRC E20E9428
Copy OK

Track 7
Filename C:\Documents and Settings\Desktop\Stephane Grappelli - To Django (1987) [FLAC] {Accord}\07 - Fantaisie.wav

Pre-gap length 0:00:02.70

Peak level 91.9 %
Track quality 100.0 %
Test CRC 080C0222
Copy CRC 080C0222
Copy OK

Track 8
Filename C:\Documents and Settings\Desktop\Stephane Grappelli - To Django (1987) [FLAC] {Accord}\08 - Dark Eyes.wav

Pre-gap length 0:00:02.69

Peak level 84.5 %
Track quality 100.0 %
Test CRC 3BDA6E57
Copy CRC 3BDA6E57
Copy OK

Track 9
Filename C:\Documents and Settings\Desktop\Stephane Grappelli - To Django (1987) [FLAC] {Accord}\09 - Tears.wav

Pre-gap length 0:00:01.60

Peak level 59.7 %
Track quality 100.0 %
Test CRC 71111BD9
Copy CRC 71111BD9
Copy OK

Track 10
Filename C:\Documents and Settings\Desktop\Stephane Grappelli - To Django (1987) [FLAC] {Accord}\10 - Avallon.wav

Pre-gap length 0:00:02.26

Peak level 79.6 %
Track quality 100.0 %
Test CRC 81DD35D9
Copy CRC 81DD35D9
Copy OK

Track 11
Filename C:\Documents and Settings\Desktop\Stephane Grappelli - To Django (1987) [FLAC] {Accord}\11 - Manoir De Mes Reves.wav

Pre-gap length 0:00:02.22

Peak level 48.6 %
Track quality 100.0 %
Test CRC 627732D9
Copy CRC 627732D9
Copy OK

Track 12
Filename C:\Documents and Settings\Desktop\Stephane Grappelli - To Django (1987) [FLAC] {Accord}\12 - Clopin-Clopant.wav

Pre-gap length 0:00:02.49

Peak level 61.2 %
Track quality 100.0 %
Test CRC 995D9BFB
Copy CRC 995D9BFB
Copy OK

Track 13
Filename C:\Documents and Settings\Desktop\Stephane Grappelli - To Django (1987) [FLAC] {Accord}\13 - Daphne.wav

Pre-gap length 0:00:01.80

Peak level 81.5 %
Track quality 100.0 %
Test CRC 8C650A0A
Copy CRC 8C650A0A
Copy OK

Track 14
Filename C:\Documents and Settings\Desktop\Stephane Grappelli - To Django (1987) [FLAC] {Accord}\14 - Blues.wav

Pre-gap length 0:00:02.62

Peak level 88.2 %
Track quality 100.0 %
Test CRC 23692F11
Copy CRC 23692F11
Copy OK

Track 15
Filename C:\Documents and Settings\Desktop\Stephane Grappelli - To Django (1987) [FLAC] {Accord}\15 - Swing Guitar.wav

Pre-gap length 0:00:01.77

Peak level 90.6 %
Track quality 100.0 %
Test CRC 563DAB58
Copy CRC 563DAB58
Copy OK

Track 16
Filename C:\Documents and Settings\Desktop\Stephane Grappelli - To Django (1987) [FLAC] {Accord}\16 - Are You In The Moon.wav

Pre-gap length 0:00:02.76

Peak level 47.1 %
Track quality 100.0 %
Test CRC 4812D48D
Copy CRC 4812D48D
Copy OK

No errors occured


End of status report


Stephane Grappelli - To Django (1987) {Accord} **[RE-UP]**