Subcategories

Silvia Nakkach - Invocation (2003) {Relaxation Music}

Posted By: TestTickles
Silvia Nakkach - Invocation (2003) {Relaxation Music}

Silvia Nakkach - Invocation (2003) {Relaxation Music}
EAC Rip | FLAC with log | no scans | 329 mb
MP3 CBR 320kbps | RAR | 134 mb
Genre: new age, meditation

Invocation is the 2003 album by Silvia Nakkach. This was released on Relaxation Music, a disc for those who wish to meditate in the best manner.

01. Bliss
02. Union
03. Creation
04. Healing
05. Radiance
06. Devotion
07. Compassion
08. Grace
09. Divinity
10. Peace


Silvia Nakkach-vocals, various instruments, percussion
Paul Mccandless- oboe
Miguel Frasconi-glass harmonica
Eduardo Laguillo-vocals, guitar
Jack Gates-guitar
Michael Knapp-cello, bass


Exact Audio Copy V0.99 prebeta 4 from 23. January 2008

EAC extraction logfile from 17. March 2009, 18:59

Silvia Nakkach / Invocation

Used drive : PIONEER DVD-RW DVR-215D Adapter: 2 ID: 1

Read mode : Secure
Utilize accurate stream : Yes
Defeat audio cache : Yes
Make use of C2 pointers : No

Read offset correction : 48
Overread into Lead-In and Lead-Out : No
Fill up missing offset samples with silence : Yes
Delete leading and trailing silent blocks : No
Null samples used in CRC calculations : Yes
Used interface : Installed external ASPI interface

Used output format : Internal WAV Routines

Sample format : 44.100 Hz; 16 Bit; Stereo

TOC of the extracted CD

Track | Start | Length | Start sector | End sector
––––––––––––––––––––––––––––-
1 | 0:00.00 | 8:03.45 | 0 | 36269
2 | 8:03.45 | 2:34.10 | 36270 | 47829
3 | 10:37.55 | 9:40.58 | 47830 | 91387
4 | 20:18.38 | 8:08.40 | 91388 | 128027
5 | 28:27.03 | 6:27.00 | 128028 | 157052
6 | 34:54.03 | 8:34.18 | 157053 | 195620
7 | 43:28.21 | 5:20.22 | 195621 | 219642
8 | 48:48.43 | 4:08.52 | 219643 | 238294
9 | 52:57.20 | 6:22.27 | 238295 | 266971
10 | 59:19.47 | 0:40.64 | 266972 | 270035

Range status and errors

Selected range

Filename C:\FLAC\Silvia Nakkach - Invocation (2003) [FLAC] {Relaxation Music}\Silvia Nakkach - Invocation.wav

Peak level 99.9 %
Range quality 100.0 %
Test CRC 03EF1689
Copy CRC 03EF1689
Copy OK

No errors occurred

AccurateRip summary

Track 1 not present in database
Track 2 not present in database
Track 3 not present in database
Track 4 not present in database
Track 5 not present in database
Track 6 not present in database
Track 7 not present in database
Track 8 not present in database
Track 9 not present in database
Track 10 not present in database

None of the tracks are present in the AccurateRip database

End of status report


Thank you to the original uploader