Tags
Language
Tags

Barbara Morgenstern - The Grass Is Always Greener (2006) {Monika Enterprise} **[RE-UP]**

Posted By: TestTickles
Barbara Morgenstern - The Grass Is Always Greener (2006) {Monika Enterprise} **[RE-UP]**

Barbara Morgenstern - The Grass Is Always Greener (2006) {Monika Enterprise}
EAC Rip | FLAC with CUE and log | scans | 308 mb
MP3 CBR 320kbps | RAR | 134 mb
Genre: electronica, leftfield, synth pop

Barbara Morgenstern has been releasing music since the mid-1990's and The Grass Is Always Greener was released in 2006 in her native country of Germany/Deutschland. For fans of adventurous electronic music and electronica. Monika Enterprise released this for you as well as mother sound nature.

Barbara Morgenstern - The Grass Is Always Greener (2006) {Monika Enterprise} **[RE-UP]**

1. The Grass Is Always Greener 4:43
2. The Operator 4:23
3. Polar 3:24
4. Das Schöne Einheitsbild 3:13
5. Unser Mann Aus Hollywood 2:45
6. Juist 3:53
7. Alles Was Lebt Bewegt Sich 3:40
8. Ein Paar Sekunden 3:34
9. Die Japanische Schranke 5:06
10. Quality Time 4:09
11. Mailand 2:35
12. Initials B.M. 4:09

EAC extraction logfile from 28. January 2007, 0:49 for CD
Barbara Morgenstern / The Grass Is Always Greener

Used drive : IDE-DVD DROM6216 Adapter: 2 ID: 1
Read mode : Secure with NO C2, accurate stream, disable cache
Read offset correction : 738
Overread into Lead-In and Lead-Out : No

Used output format : C:\Program Files\FLAC\flac.exe (User Defined Encoder)
128 kBit/s
Additional command line options : -V -8 -T "artist=%a" -T "title=%t" -T "album=%g" -T "date=%y" -T "tracknumber=%n" -T "genre=%m" %s

Other options :
Fill up missing offset samples with silence : Yes
Delete leading and trailing silent blocks : No
Native Win32 interface for Win NT & 2000


Track 1
Filename C:\FLAC\Barbara Morgenstern - The Grass Is Always Greener (2006) {Monika Enterprise}\01 - The Grass Is Always Greener.wav

Pre-gap length 0:00:04.00

Peak level 96.6 %
Track quality 100.0 %
Test CRC 9E6A22DA
Copy CRC 9E6A22DA
Copy OK

Track 2
Filename C:\FLAC\Barbara Morgenstern - The Grass Is Always Greener (2006) {Monika Enterprise}\02 - The Operator.wav

Pre-gap length 0:00:00.72

Peak level 96.6 %
Track quality 100.0 %
Test CRC 78E91B5F
Copy CRC 78E91B5F
Copy OK

Track 3
Filename C:\FLAC\Barbara Morgenstern - The Grass Is Always Greener (2006) {Monika Enterprise}\03 - Polar.wav

Pre-gap length 0:00:02.32

Peak level 96.6 %
Track quality 100.0 %
Test CRC 590DB4E7
Copy CRC 590DB4E7
Copy OK

Track 4
Filename C:\FLAC\Barbara Morgenstern - The Grass Is Always Greener (2006) {Monika Enterprise}\04 - Das Schone Einheitsbild.wav

Pre-gap length 0:00:01.42

Peak level 96.6 %
Track quality 100.0 %
Test CRC 745D6883
Copy CRC 745D6883
Copy OK

Track 5
Filename C:\FLAC\Barbara Morgenstern - The Grass Is Always Greener (2006) {Monika Enterprise}\05 - Unser Mann Aus Hollywood.wav

Pre-gap length 0:00:00.61

Peak level 96.6 %
Track quality 100.0 %
Test CRC 9F1B6A0E
Copy CRC 9F1B6A0E
Copy OK

Track 6
Filename C:\FLAC\Barbara Morgenstern - The Grass Is Always Greener (2006) {Monika Enterprise}\06 - Juist.wav

Pre-gap length 0:00:01.18

Peak level 96.6 %
Track quality 99.9 %
Test CRC 319E0AED
Copy CRC 319E0AED
Copy OK

Track 7
Filename C:\FLAC\Barbara Morgenstern - The Grass Is Always Greener (2006) {Monika Enterprise}\07 - Alles Was Lebt Bewegt Sich.wav

Pre-gap length 0:00:01.56

Peak level 96.6 %
Track quality 100.0 %
Test CRC C3025CE7
Copy CRC C3025CE7
Copy OK

Track 8
Filename C:\FLAC\Barbara Morgenstern - The Grass Is Always Greener (2006) {Monika Enterprise}\08 - Ein Paar Sekunden.wav

Pre-gap length 0:00:00.73

Peak level 96.6 %
Track quality 100.0 %
Test CRC 18770644
Copy CRC 18770644
Copy OK

Track 9
Filename C:\FLAC\Barbara Morgenstern - The Grass Is Always Greener (2006) {Monika Enterprise}\09 - Die Japanische Schranke.wav

Pre-gap length 0:00:01.14

Peak level 96.6 %
Track quality 100.0 %
Test CRC D411FD22
Copy CRC D411FD22
Copy OK

Track 10
Filename C:\FLAC\Barbara Morgenstern - The Grass Is Always Greener (2006) {Monika Enterprise}\10 - Quality Time.wav

Pre-gap length 0:00:01.12

Peak level 96.6 %
Track quality 100.0 %
Test CRC 1CB53A4B
Copy CRC 1CB53A4B
Copy OK

Track 11
Filename C:\FLAC\Barbara Morgenstern - The Grass Is Always Greener (2006) {Monika Enterprise}\11 - Mailand.wav

Pre-gap length 0:00:02.41

Peak level 96.6 %
Track quality 99.9 %
Test CRC E6CA290F
Copy CRC E6CA290F
Copy OK

Track 12
Filename C:\FLAC\Barbara Morgenstern - The Grass Is Always Greener (2006) {Monika Enterprise}\12 - Initials B.M..wav

Pre-gap length 0:00:01.68

Peak level 96.6 %
Track quality 100.0 %
Test CRC 448486FB
Copy CRC 448486FB
Copy OK

No errors occured


End of status report


Barbara Morgenstern - The Grass Is Always Greener (2006) {Monika Enterprise} **[RE-UP]**


Thank you to the original uploader.