Subcategories

Battles - Gloss Drop (2011) {Beat Japan}

Posted By: TestTickles
Battles - Gloss Drop (2011) {Beat Japan}

Battles - Gloss Drop (2011) {Beat Japan}
EAC Rip | FLAC with CUE and LOG | scans | 404 mb
MP3 CBR 320 kbps | RAR | 138 mb
Genre: indie rock, math rock

Gloss Drop is the 2011 album by Battles. This is the Japanese pressing on the Beat label featuring a bonus track.

01. Africastle
02. Ice Cream
03. Futura
04. Inchworm
05. Wall Street
06. My Machine
07. Dominican Fade
08. Sweetie & Sha
09. Toddler
10. Rolls Bayce
11. White Electric
12. Sundome
13. Sundome (Instrumental) (Bonus Track)

Track 2 featuring Matias Aguayo
Track 5 featuring Gary Numan
Track 8 featuring Kazu Makino
Track 12 featuring Yamantaka Eye

Exact Audio Copy V1.0 beta 1 from 15. November 2010

EAC extraction logfile from 10. November 2011, 4:24

Battles / Gloss Drop

Used drive : HL-DT-STDVDRAM GSA-U10N Adapter: 1 ID: 0

Read mode : Secure
Utilize accurate stream : Yes
Defeat audio cache : Yes
Make use of C2 pointers : No

Read offset correction : 667
Overread into Lead-In and Lead-Out : No
Fill up missing offset samples with silence : Yes
Delete leading and trailing silent blocks : No
Null samples used in CRC calculations : Yes
Used interface : Native Win32 interface for Win NT & 2000
Gap handling : Appended to previous track

Used output format : User Defined Encoder
Selected bitrate : 192 kBit/s
Quality : High
Add ID3 tag : No
Command line compressor : C:\Program Files\Exact Audio Copy\Flac\flac.exe
Additional command line options : -V -8 -T "artist=%a" -T "title=%t" -T "album=%g" -T "date=%y" -T "tracknumber=%n" -T "genre=%m" %s


TOC of the extracted CD

Track | Start | Length | Start sector | End sector
––––––––––––––––––––––––––––-
1 | 0:00.00 | 5:48.18 | 0 | 26117
2 | 5:48.18 | 4:36.72 | 26118 | 46889
3 | 10:25.15 | 6:17.37 | 46890 | 75201
4 | 16:42.52 | 4:52.03 | 75202 | 97104
5 | 21:34.55 | 5:24.72 | 97105 | 121476
6 | 26:59.52 | 3:55.29 | 121477 | 139130
7 | 30:55.06 | 1:48.55 | 139131 | 147285
8 | 32:43.61 | 3:50.06 | 147286 | 164541
9 | 36:33.67 | 1:11.12 | 164542 | 169878
10 | 37:45.04 | 2:06.25 | 169879 | 179353
11 | 39:51.29 | 6:14.36 | 179354 | 207439
12 | 46:05.65 | 7:51.16 | 207440 | 242780
13 | 53:57.06 | 7:45.09 | 242781 | 277664


Track 1

Filename C:\cuntfist\FLAC\Battles - Gloss Drop (2011) [FLAC] {Beat Japan}\01 - Africastle.wav

Pre-gap length 0:00:02.00

Peak level 96.5 %
Extraction speed 2.1 X
Track quality 100.0 %
Test CRC 69E58B75
Copy CRC 69E58B75
Track not present in AccurateRip database
Copy OK

Track 2

Filename C:\cuntfist\FLAC\Battles - Gloss Drop (2011) [FLAC] {Beat Japan}\02 - Ice Cream.wav

Peak level 96.5 %
Extraction speed 1.8 X
Track quality 99.9 %
Test CRC B4CAA101
Copy CRC B4CAA101
Track not present in AccurateRip database
Copy OK

Track 3

Filename C:\cuntfist\FLAC\Battles - Gloss Drop (2011) [FLAC] {Beat Japan}\03 - Futura.wav

Peak level 96.5 %
Extraction speed 2.7 X
Track quality 100.0 %
Test CRC CFC89C46
Copy CRC CFC89C46
Track not present in AccurateRip database
Copy OK

Track 4

Filename C:\cuntfist\FLAC\Battles - Gloss Drop (2011) [FLAC] {Beat Japan}\04 - Inchworm.wav

Peak level 96.5 %
Extraction speed 2.9 X
Track quality 100.0 %
Test CRC EAC57670
Copy CRC EAC57670
Track not present in AccurateRip database
Copy OK

Track 5

Filename C:\cuntfist\FLAC\Battles - Gloss Drop (2011) [FLAC] {Beat Japan}\05 - Wall Street.wav

Peak level 96.5 %
Extraction speed 3.1 X
Track quality 100.0 %
Test CRC D42776E5
Copy CRC D42776E5
Track not present in AccurateRip database
Copy OK

Track 6

Filename C:\cuntfist\FLAC\Battles - Gloss Drop (2011) [FLAC] {Beat Japan}\06 - My Machine.wav

Peak level 96.5 %
Extraction speed 3.2 X
Track quality 100.0 %
Test CRC D5872374
Copy CRC D5872374
Track not present in AccurateRip database
Copy OK

Track 7

Filename C:\cuntfist\FLAC\Battles - Gloss Drop (2011) [FLAC] {Beat Japan}\07 - Dominican Fade.wav

Peak level 96.5 %
Extraction speed 2.8 X
Track quality 100.0 %
Test CRC 0FA7765B
Copy CRC 0FA7765B
Track not present in AccurateRip database
Copy OK

Track 8

Filename C:\cuntfist\FLAC\Battles - Gloss Drop (2011) [FLAC] {Beat Japan}\08 - Sweetie & Shag.wav

Peak level 96.5 %
Extraction speed 3.3 X
Track quality 100.0 %
Test CRC 0C0F595E
Copy CRC 0C0F595E
Track not present in AccurateRip database
Copy OK

Track 9

Filename C:\cuntfist\FLAC\Battles - Gloss Drop (2011) [FLAC] {Beat Japan}\09 - Toddler.wav

Peak level 79.9 %
Extraction speed 2.5 X
Track quality 100.0 %
Test CRC 6E836BF0
Copy CRC 6E836BF0
Track not present in AccurateRip database
Copy OK

Track 10

Filename C:\cuntfist\FLAC\Battles - Gloss Drop (2011) [FLAC] {Beat Japan}\10 - Rolls Bayce.wav

Peak level 96.5 %
Extraction speed 3.1 X
Track quality 100.0 %
Test CRC 80DE5432
Copy CRC 80DE5432
Track not present in AccurateRip database
Copy OK

Track 11

Filename C:\cuntfist\FLAC\Battles - Gloss Drop (2011) [FLAC] {Beat Japan}\11 - White Electric.wav

Peak level 96.5 %
Extraction speed 3.2 X
Track quality 99.9 %
Test CRC 7E2B062E
Copy CRC 7E2B062E
Track not present in AccurateRip database
Copy OK

Track 12

Filename C:\cuntfist\FLAC\Battles - Gloss Drop (2011) [FLAC] {Beat Japan}\12 - Sundome.wav

Pre-gap length 0:00:01.42

Peak level 96.5 %
Extraction speed 3.1 X
Track quality 99.9 %
Test CRC FE6C3822
Copy CRC FE6C3822
Track not present in AccurateRip database
Copy OK

Track 13

Filename C:\cuntfist\FLAC\Battles - Gloss Drop (2011) [FLAC] {Beat Japan}\13 - Sundome (Instrumental) (Bonus Track).wav

Pre-gap length 0:00:03.33

Peak level 96.6 %
Extraction speed 3.2 X
Track quality 99.9 %
Test CRC 823B6B6A
Copy CRC 823B6B6A
Track not present in AccurateRip database
Copy OK


None of the tracks are present in the AccurateRip database

No errors occurred

End of status report


Battles - Gloss Drop (2011) {Beat Japan}


Thank you to the original uploader.