Subcategories

Battiato - Fetus (1972) {1998 Ricordi/BMG}

Posted By: TestTickles
Battiato - Fetus (1972) {1998 Ricordi/BMG}

Battiato - Fetus (1972) {1998 Ricordi/BMG}
EAC Rip | FLAC with CUE and LOG | scans | 169 mb
MP3 CBR 320 kbps | RAR | 69 mb
Genre: electronic, experimental

Fetus is the 1972 album by Italian man Franco Battiato, who simply went by Battiato for this release. This is the 1998 pressing released by Ricordi via BMG.

Battiato - Fetus (1972) {1998 Ricordi/BMG}

1. Fetus (2:39)
2. Una cellula (2:55)
3. Cariocinesi (1:59)
4. Energia (4:31)
5. Fenomenologia (3:51)
6. Meccanica (6:11)
7. Anafase (5:36)
8. Mutazione (2:58)

Franco Battiato: synthesizers VCS3, strings, vocals

EAC extraction logfile from 17. October 2005, 18:42 for CD
Franco Battiato / Fetus

Used drive : PIONEER DVD-ROM DVD-114F Adapter: 0 ID: 1
Read mode : Secure with NO C2, accurate stream, disable cache
Read offset correction : 696
Overread into Lead-In and Lead-Out : Yes

Used output format : Internal WAV Routines
44.100 Hz; 16 Bit; Stereo

Other options :
Fill up missing offset samples with silence : Yes
Delete leading and trailing silent blocks : No
Installed external ASPI interface


Track 1
Filename C:\FLAC\Battiato - Fetus (1972) [FLAC] {1998 Ricordi, BMG}\01 - Fetus.wav

Pre-gap length 0:00:02.00

Peak level 93.2 %
Track quality 100.0 %
Test CRC 52E71822
Copy CRC 52E71822
Copy OK

Track 2
Filename C:\FLAC\Battiato - Fetus (1972) [FLAC] {1998 Ricordi, BMG}\02 - Una Cellula.wav

Peak level 100.0 %
Track quality 100.0 %
Test CRC 6A05A2FE
Copy CRC 6A05A2FE
Copy OK

Track 3
Filename C:\FLAC\Battiato - Fetus (1972) [FLAC] {1998 Ricordi, BMG}\03 - Cariocinesi.wav

Peak level 98.6 %
Track quality 100.0 %
Test CRC 1282B561
Copy CRC 1282B561
Copy OK

Track 4
Filename C:\FLAC\Battiato - Fetus (1972) [FLAC] {1998 Ricordi, BMG}\04 - Energia.wav

Peak level 95.9 %
Track quality 100.0 %
Test CRC CEB37838
Copy CRC CEB37838
Copy OK

Track 5
Filename C:\FLAC\Battiato - Fetus (1972) [FLAC] {1998 Ricordi, BMG}\05 - Fenomenologia.wav

Peak level 94.1 %
Track quality 100.0 %
Test CRC 5A39DECE
Copy CRC 5A39DECE
Copy OK

Track 6
Filename C:\FLAC\Battiato - Fetus (1972) [FLAC] {1998 Ricordi, BMG}\06 - Meccanica.wav

Peak level 100.0 %
Track quality 100.0 %
Test CRC 5EDE8E8A
Copy CRC 5EDE8E8A
Copy OK

Track 7
Filename C:\FLAC\Battiato - Fetus (1972) [FLAC] {1998 Ricordi, BMG}\07 - Anafase.wav

Peak level 99.9 %
Track quality 100.0 %
Test CRC B1D94298
Copy CRC B1D94298
Copy OK

Track 8
Filename C:\FLAC\Battiato - Fetus (1972) [FLAC] {1998 Ricordi, BMG}\08 - Mutazione.wav

Peak level 94.6 %
Track quality 100.0 %
Test CRC 502966EC
Copy CRC 502966EC
Copy OK

No errors occured


End of status report


Battiato - Fetus (1972) {1998 Ricordi/BMG}


Thank you to the original uploader.