Tags
Language
Tags
June 2024
Su Mo Tu We Th Fr Sa
26 27 28 29 30 31 1
2 3 4 5 6 7 8
9 10 11 12 13 14 15
16 17 18 19 20 21 22
23 24 25 26 27 28 29
30 1 2 3 4 5 6

A Tribute to Ysaÿe: Works by Ysaÿe, Chausson, Lekeu, Franck & Debussy [5CDs] (2019)

Posted By: ArlegZ
A Tribute to Ysaÿe: Works by Ysaÿe, Chausson, Lekeu, Franck & Debussy [5CDs] (2019)

A Tribute to Ysaÿe: Works by Ysaÿe, Chausson, Lekeu, Franck & Debussy [5CDs] (2019)
EAC | FLAC | Image (Cue & Log) ~ 1.53 Gb | Total time: 05:55:36 | Scans included
Classical | Label: Fuga Libera | # FUG 758 | Recorded: 2009-2019

Eugène Ysaÿe, a violin virtuoso admired by all his contemporaries, was an inheritor of what has justly been considered as the Belgian school of violin, whose ascendancy can be traced back to the beginning of the 19th century. His work as a composer, however, is much less well known today and it is this facet of his extraordinarily active life that we will explore here. He composed many different types of works; here we present his works for solo violin and orchestra, including two movements of violin concertos which are now available on record for the first time, and his chamber music. A great champion of the music of his time, Ysaÿe gave the first performances of a great number of works, many of which were dedicated to him as well as having been commissioned by him; the most well-known of these pieces are also included here. This fascinating boxed set from the Queen Elisabeth Music Chapel is a fine example of the work of this important musical institution: it features the Chapel’s masters and the young soloists who trained there alongside two Belgian orchestras of international renown.

Tracklist & Cast:
CD1:
Eugène Ysaÿe (1858–1931)
01. Violin Concerto in E minor: I. Allegro appassionato non troppo vivo
Yossif Ivanov, violin
Orchestre Philharmonique Royal de Liège
Jean-Jacques Kantorow, conductor


02. Violin Concerto in D minor: I. Allegro moderato
Nikita Boriso-Glebsky, violin
Orchestre Philharmonique Royal de Liège
Jean-Jacques Kantorow, conductor


03. Poème élégiaque for violin and orchestra in D minor, op. 12
Tedi Papavrami, violin
Orchestre Philharmonique Royal de Liège
François-Xavier Roth, conductor


04. Caprice d’après l’Étude en forme de valse de Saint-Saëns, for violin and orchestra
Maria Milstein, violin
Orchestre Philharmonique Royal de Liège
Christian Arming, conductor


CD2:
Eugène Ysaÿe
01. Amitié, for two violins and orchestra, op. 26
Lorenzo Gatto, violin
Yossif Ivanov, violin
Brussels Philharmonic
Stéphane Denève, conductor


Ernest Chausson (1855–1899)
02. Poème, for violin and orchestra, op. 25
Renaud Capuçon, violin
Brussels Philharmonic
Stéphane Denève, conductor


Eugène Ysaÿe
03. Harmonies du soir, for string quartet and string orchestra, op. 31
Quatuor Hermès
Brussels Philharmonic
Stéphane Denève, conductor


04. Méditation, for cello and orchestra, op. 16
Gary Hoffman, cello
Brussels Philharmonic
Stéphane Denève, conductor


CD3:
Guillaume Lekeu (1870–1894)
01-03. Sonata for violin and piano in G major
Kerson Leong, violin
Jean-Claude Vanden Eynden, piano


César Franck (1822–1890)
04-07. Sonata for violin and piano in A major
Lorenzo Gatto, violin
Julien Libeer, piano


Eugène Ysaÿe
08. Trio de concert « Le Chimay » for violin, viola and cello
Elina Buksha, violin
Hélène Desaint, viola
Astrig Siranossian, cello


CD4:
Claude Debussy (1862–1918)
01-04. String Quartet in G minor, op. 10
Augustin Dumay, violin
Hyeon Jin Jane Cho, violin
Miguel da Silva, viola
Henri Demarquette, cello


Ernest Chausson
05-08. Concert for violin, piano and string quartet in D major, op. 21
Elina Buksha, violin
Pavel Kolesnikov, piano
Quatuor Hermès


Eugène Ysaÿe
09. Légende norvégienne, for violin and piano
Kerson Leong, violin
Jonathan Fournel, piano


CD5:
Guillaume Lekeu
01-02. Piano Quartet
Júlia Pusker, violin
Miguel da Silva, viola
Danilo Squitieri, cello
Jean-Claude Vanden Eynden, piano


Eugène Ysaÿe
03-05. Sonata for two violins
Vladyslava Luchenko, violin
Hyeon Jin Jane Cho, violin


06. Trio de concert en une partie « Le Londres » for two violins and viola (version in one movement)
Vladyslava Luchenko, violin
Hyeon Jin Jane Cho, violin
Miguel da Silva, viola


07. Rêve d’enfant, for violin and piano, op. 14
Augustin Dumay, violin
Jonathan Fournel, piano




Exact Audio Copy V1.5 from 20. February 2020

EAC extraction logfile from 13. February 2022, 22:34

- / A Tribute to Ysaÿe - CD1

Used drive : ASUS SDRW-08U7M-U Adapter: 1 ID: 0

Read mode : Secure
Utilize accurate stream : Yes
Defeat audio cache : Yes
Make use of C2 pointers : No

Read offset correction : 6
Overread into Lead-In and Lead-Out : No
Fill up missing offset samples with silence : Yes
Delete leading and trailing silent blocks : No
Null samples used in CRC calculations : Yes
Used interface : Native Win32 interface for Win NT & 2000

Used output format : User Defined Encoder
Selected bitrate : 128 kBit/s
Quality : High
Add ID3 tag : No
Command line compressor : C:\Program Files (x86)\Exact Audio Copy\Flac\flac.exe
Additional command line options : -V -8 -T "Date=%year%" -T "Genre=%genre%" %source%


TOC of the extracted CD

Track | Start | Length | Start sector | End sector
––––––––––––––––––––––––––––-
1 | 0:00.00 | 16:38.23 | 0 | 74872
2 | 16:38.23 | 17:06.69 | 74873 | 151891
3 | 33:45.17 | 14:11.26 | 151892 | 215742
4 | 47:56.43 | 8:52.35 | 215743 | 255677


Range status and errors

Selected range

Filename C:\temp\A Tribute to Ysaye - 2019\CD1\A Tribute to Ysaye - CD1.wav

Peak level 99.9 %
Extraction speed 4.5 X
Range quality 100.0 %
Test CRC 30418977
Copy CRC 30418977
Copy OK

No errors occurred


AccurateRip summary

Track 1 accurately ripped (confidence 5) [0ACB2874] (AR v2)
Track 2 accurately ripped (confidence 5) [76460EF2] (AR v2)
Track 3 accurately ripped (confidence 5) [B9481F88] (AR v2)
Track 4 accurately ripped (confidence 5) [51B1A62E] (AR v2)

All tracks accurately ripped

End of status report

==== Log checksum 02DF1756011F4B68A172FF8160CB3E812187544DF7673565B449C2D9531966D1 ====


Exact Audio Copy V1.5 from 20. February 2020

EAC extraction logfile from 13. February 2022, 23:11

Brussels Philharmonic, Stéphane Denève / A Tribute to Ysaÿe - CD2

Used drive : ASUS SDRW-08U7M-U Adapter: 1 ID: 0

Read mode : Secure
Utilize accurate stream : Yes
Defeat audio cache : Yes
Make use of C2 pointers : No

Read offset correction : 6
Overread into Lead-In and Lead-Out : No
Fill up missing offset samples with silence : Yes
Delete leading and trailing silent blocks : No
Null samples used in CRC calculations : Yes
Used interface : Native Win32 interface for Win NT & 2000

Used output format : User Defined Encoder
Selected bitrate : 128 kBit/s
Quality : High
Add ID3 tag : No
Command line compressor : C:\Program Files (x86)\Exact Audio Copy\Flac\flac.exe
Additional command line options : -V -8 -T "Date=%year%" -T "Genre=%genre%" %source%


TOC of the extracted CD

Track | Start | Length | Start sector | End sector
––––––––––––––––––––––––––––-
1 | 0:00.00 | 15:37.45 | 0 | 70319
2 | 15:37.45 | 16:06.26 | 70320 | 142795
3 | 31:43.71 | 14:31.11 | 142796 | 208131
4 | 46:15.07 | 12:58.06 | 208132 | 266487


Range status and errors

Selected range

Filename C:\temp\A Tribute to Ysaye - 2019\CD2\A Tribute to Ysaye - CD2.wav

Peak level 94.9 %
Extraction speed 4.0 X
Range quality 99.9 %
Test CRC 66C50D25
Copy CRC 66C50D25
Copy OK

No errors occurred


AccurateRip summary

Track 1 accurately ripped (confidence 5) [8E2CB3FB] (AR v2)
Track 2 accurately ripped (confidence 5) [F22F44E4] (AR v2)
Track 3 accurately ripped (confidence 5) [10E21250] (AR v2)
Track 4 accurately ripped (confidence 5) [C81DBB89] (AR v2)

All tracks accurately ripped

End of status report

==== Log checksum 70E0F0097087F2375A83DFB8700A215F5CC319942FFEDFD3E500948ED8BCDE73 ====


Exact Audio Copy V1.5 from 20. February 2020

EAC extraction logfile from 14. February 2022, 0:33

- / A Tribute to Ysaÿe - CD3

Used drive : ASUS SDRW-08U7M-U Adapter: 1 ID: 0

Read mode : Secure
Utilize accurate stream : Yes
Defeat audio cache : Yes
Make use of C2 pointers : No

Read offset correction : 6
Overread into Lead-In and Lead-Out : No
Fill up missing offset samples with silence : Yes
Delete leading and trailing silent blocks : No
Null samples used in CRC calculations : Yes
Used interface : Native Win32 interface for Win NT & 2000

Used output format : User Defined Encoder
Selected bitrate : 128 kBit/s
Quality : High
Add ID3 tag : No
Command line compressor : C:\Program Files (x86)\Exact Audio Copy\Flac\flac.exe
Additional command line options : -V -8 -T "Date=%year%" -T "Genre=%genre%" %source%


TOC of the extracted CD

Track | Start | Length | Start sector | End sector
––––––––––––––––––––––––––––-
1 | 0:00.00 | 12:15.51 | 0 | 55175
2 | 12:15.51 | 12:15.45 | 55176 | 110345
3 | 24:31.21 | 10:26.37 | 110346 | 157332
4 | 34:57.58 | 5:37.25 | 157333 | 182632
5 | 40:35.08 | 7:44.51 | 182633 | 217483
6 | 48:19.59 | 6:38.06 | 217484 | 247339
7 | 54:57.65 | 5:59.65 | 247340 | 274329
8 | 60:57.55 | 18:07.32 | 274330 | 355886


Range status and errors

Selected range

Filename C:\temp\A Tribute to Ysaye - 2019\CD3\A Tribute to Ysaye - CD3.wav

Peak level 93.9 %
Extraction speed 5.4 X
Range quality 100.0 %
Test CRC D8DF9FB8
Copy CRC D8DF9FB8
Copy OK

No errors occurred


AccurateRip summary

Track 1 accurately ripped (confidence 5) [206F31F9] (AR v2)
Track 2 accurately ripped (confidence 5) [9DBF89C6] (AR v2)
Track 3 accurately ripped (confidence 5) [3D328E0B] (AR v2)
Track 4 accurately ripped (confidence 5) [788F5233] (AR v2)
Track 5 accurately ripped (confidence 5) [AF52863C] (AR v2)
Track 6 accurately ripped (confidence 5) [C0A43CCA] (AR v2)
Track 7 accurately ripped (confidence 5) [2D4A1259] (AR v2)
Track 8 accurately ripped (confidence 5) [0EAE0184] (AR v2)

All tracks accurately ripped

End of status report

==== Log checksum A515A668C937D29654D325F4BCC6D06A9F0DB1C2AE78D73944E76F8C464EDDF2 ====


Exact Audio Copy V1.5 from 20. February 2020

EAC extraction logfile from 14. February 2022, 20:29

- / A Tribute to Ysaÿe - CD4

Used drive : ASUS SDRW-08U7M-U Adapter: 1 ID: 0

Read mode : Secure
Utilize accurate stream : Yes
Defeat audio cache : Yes
Make use of C2 pointers : No

Read offset correction : 6
Overread into Lead-In and Lead-Out : No
Fill up missing offset samples with silence : Yes
Delete leading and trailing silent blocks : No
Null samples used in CRC calculations : Yes
Used interface : Native Win32 interface for Win NT & 2000

Used output format : User Defined Encoder
Selected bitrate : 128 kBit/s
Quality : High
Add ID3 tag : No
Command line compressor : C:\Program Files (x86)\Exact Audio Copy\Flac\flac.exe
Additional command line options : -V -8 -T "Date=%year%" -T "Genre=%genre%" %source%


TOC of the extracted CD

Track | Start | Length | Start sector | End sector
––––––––––––––––––––––––––––-
1 | 0:00.00 | 6:34.50 | 0 | 29599
2 | 6:34.50 | 3:44.69 | 29600 | 46468
3 | 10:19.44 | 7:59.42 | 46469 | 82435
4 | 18:19.11 | 7:37.37 | 82436 | 116747
5 | 25:56.48 | 15:06.74 | 116748 | 184771
6 | 41:03.47 | 4:53.30 | 184772 | 206776
7 | 45:57.02 | 11:13.69 | 206777 | 257320
8 | 57:10.71 | 11:36.48 | 257321 | 309568
9 | 68:47.44 | 11:59.34 | 309569 | 363527


Range status and errors

Selected range

Filename C:\temp\A Tribute to Ysaye - 2019\CD4\A Tribute to Ysaye - CD4.wav

Peak level 94.4 %
Extraction speed 5.4 X
Range quality 100.0 %
Test CRC 3024B9D6
Copy CRC 3024B9D6
Copy OK

No errors occurred


AccurateRip summary

Track 1 accurately ripped (confidence 5) [03B3817F] (AR v2)
Track 2 accurately ripped (confidence 5) [041FA28E] (AR v2)
Track 3 accurately ripped (confidence 5) [2C7D3C4D] (AR v2)
Track 4 accurately ripped (confidence 5) [9A10E850] (AR v2)
Track 5 accurately ripped (confidence 5) [C37C5051] (AR v2)
Track 6 accurately ripped (confidence 5) [3DAAAA2D] (AR v2)
Track 7 accurately ripped (confidence 5) [A4B2CB5D] (AR v2)
Track 8 accurately ripped (confidence 5) [40EBD9C9] (AR v2)
Track 9 accurately ripped (confidence 5) [FFA9F759] (AR v2)

All tracks accurately ripped

End of status report

==== Log checksum ADD53E7F961AD29A28CD8CCAA34CC31EB4A928F502FD386AB46FC371D7BDECD6 ====


Exact Audio Copy V1.5 from 20. February 2020

EAC extraction logfile from 14. February 2022, 21:07

- / A Tribute to Ysaÿe - CD5

Used drive : ASUS SDRW-08U7M-U Adapter: 1 ID: 0

Read mode : Secure
Utilize accurate stream : Yes
Defeat audio cache : Yes
Make use of C2 pointers : No

Read offset correction : 6
Overread into Lead-In and Lead-Out : No
Fill up missing offset samples with silence : Yes
Delete leading and trailing silent blocks : No
Null samples used in CRC calculations : Yes
Used interface : Native Win32 interface for Win NT & 2000

Used output format : User Defined Encoder
Selected bitrate : 128 kBit/s
Quality : High
Add ID3 tag : No
Command line compressor : C:\Program Files (x86)\Exact Audio Copy\Flac\flac.exe
Additional command line options : -V -8 -T "Date=%year%" -T "Genre=%genre%" %source%


TOC of the extracted CD

Track | Start | Length | Start sector | End sector
––––––––––––––––––––––––––––-
1 | 0:00.00 | 15:40.70 | 0 | 70569
2 | 15:40.70 | 11:25.50 | 70570 | 121994
3 | 27:06.45 | 12:40.59 | 121995 | 179053
4 | 39:47.29 | 8:16.45 | 179054 | 216298
5 | 48:03.74 | 13:25.72 | 216299 | 276745
6 | 61:29.71 | 14:04.11 | 276746 | 340056
7 | 75:34.07 | 4:02.11 | 340057 | 358217


Range status and errors

Selected range

Filename C:\temp\A Tribute to Ysaye - 2019\CD5\A Tribute to Ysaye - CD5.wav

Peak level 96.3 %
Extraction speed 5.4 X
Range quality 100.0 %
Test CRC 11D115DE
Copy CRC 11D115DE
Copy OK

No errors occurred


AccurateRip summary

Track 1 accurately ripped (confidence 5) [E6F334BE] (AR v2)
Track 2 accurately ripped (confidence 5) [7DF6EF73] (AR v2)
Track 3 accurately ripped (confidence 5) [36A0C36C] (AR v2)
Track 4 accurately ripped (confidence 5) [4A48AD51] (AR v2)
Track 5 accurately ripped (confidence 5) [3EB3088D] (AR v2)
Track 6 accurately ripped (confidence 5) [FE4025B5] (AR v2)
Track 7 accurately ripped (confidence 5) [7E9C08FD] (AR v2)

All tracks accurately ripped

End of status report

==== Log checksum 48E12760AB50DC4745980AFD75E41491BA94F71B40CBD57B87F1F683EA3ED635 ====


A Tribute to Ysaÿe: Works by Ysaÿe, Chausson, Lekeu, Franck & Debussy [5CDs] (2019)

Thanks to the original releaser