Tags
Language
Tags

ABBA: Japanese SHM-CD Collection (1973-1981)

Posted By: v3122
ABBA: Japanese SHM-CD Collection (1973-1981)

ABBA: Japanese SHM-CD Collection (1973-1981)
EAC | Flac(Image) + Cue + Log & MP3 CBR 320Kbps
8CD | 2009 | Universal Music Japan | ~ 2691 or 908 Mb | Scans(jpg) -> 285 Mb
Pop / Disco

The most commercially successful pop group of the 1970s, the origins of the Swedish superstars ABBA dated back to 1966, when keyboardist and vocalist Benny Andersson, a onetime member of the popular beat outfit the Hep Stars, first teamed with guitarist and vocalist Bjorn Ulvaeus, the leader of the folk-rock unit the Hootenanny Singers. The two performers began composing songs together and handling session and production work for Polar Music/Union Songs, a publishing company owned by Stig Anderson, himself a prolific songwriter throughout the 1950s and 1960s. At the same time, both Andersson and Ulvaeus worked on projects with their respective girlfriends: Ulvaeus had become involved with vocalist Agnetha Faltskog, a performer with a recent number one Swedish hit, "I Was So in Love," under her belt, while Andersson began seeing Anni-Frid Lyngstad, a one-time jazz singer who rose to fame by winning a national talent contest.

In 1971, Faltskog ventured into theatrical work, accepting the role of Mary Magdalene in a Swedish production of Andrew Lloyd Webber's Jesus Christ Superstar; her cover of the musical's "Don't Know How to Love Him" became a significant hit. The following year, the duo of Andersson and Ulvaeus scored a massive international hit with "People Need Love," which featured Faltskog and Lyngstad on backing vocals. The record's success earned them an invitation to enter the Swedish leg of the 1973 Eurovision song contest, where, under the unwieldy name of Bjorn, Benny, Agnetha & Frida, they submitted "Ring Ring," which proved extremely popular with audiences but placed only third in the judges' ballots.

ABBA: Japanese SHM-CD Collection (1973-1981)

The next year, rechristened ABBA (a suggestion from Stig Anderson and an acronym of the members' first names), the quartet submitted the single "Waterloo," and became the first Swedish act to win the Eurovision competition. The record proved to be the first of many international hits, although the group hit a slump after their initial success as subsequent singles failed to chart. In 1975, however, ABBA issued "S.O.S.," a smash not only in America and Britain but also in non-English speaking countries such as Spain, Germany and the Benelux nations, where the group's success was fairly unprecedented. A string of hits followed, including "Mamma Mia," "Fernando," and "Dancing Queen" (ABBA's sole U.S. chart-topper), further honing their lush, buoyant sound; by the spring of 1976, they were already in position to issue their first Greatest Hits collection.

ABBA's popularity continued in 1977, when both "Knowing Me, Knowing You" and "The Name of the Game" dominated airwaves. The group also starred in the feature film ABBA – The Movie, which was released in 1978. That year Andersson and Lyngstad married, as had Ulvaeus and Faltskog in 1971, although the latter couple separated a few months later; in fact, romantic suffering was the subject of many songs on the quartet's next LP, 1979's Voulez-Vous. Shortly after the release of 1980s Super Trouper, Andersson and Lyngstad divorced as well, further straining the group dynamic; The Visitors, issued the following year, was the final LP of new ABBA material, and the foursome officially disbanded after the December 1982 release of their single "Under Attack."

Although all of the group's members soon embarked on new projects – both Lyngstad and Faltskog issued solo LPs, while Andersson and Ulvaeus collaborated with Tim Rice on the musical Chess – none proved as successful as the group's earlier work, largely because throughout much of the world, especially Europe and Australia, the ABBA phenomenon never went away. Repackaged hits compilations and live collections continued hitting the charts long after the group's demise, and new artists regularly pointed to the quartet's inspiration: while the British dance duo Erasure released a covers collection, ABBA-esque, an Australian group called Bjorn Again found success as ABBA impersonators. In 1993, "Dancing Queen" became a staple of U2's "Zoo TV" tour – Andersson and Ulvaeus even joined the Irish superstars on-stage in Stockholm – while the 1995 feature Muriel's Wedding, which won acclaim for its depiction of a lonely Australian girl who seeks refuge in ABBA's music, helped bring the group's work to the attention of a new generation of moviegoers and music fans.

by Jason Ankeny, AMG
ABBA: Japanese SHM-CD Collection (1973-1981)


ABBA: Japanese SHM-CD Collection (1973-1981):

ABBA: Japanese SHM-CD Collection (1973-1981)

CD01: ABBA - Ring Ring (1973) Repost
EAC | Flac(Image) + Cue + Log & MP3 CBR 320Kbps
2009 | Universal Music, UICY-93886 | ~ 313 or 107 Mb | Scans(jpg) -> 35 Mb
Pop / Disco

If it seems as though the familiar ABBA sound isn't present on this album, that's because there was no entity known as ABBA at the time that the earliest sides here were recorded. Growing out of an attempt by Benny Andersson and Bjorn Ulvaeus to record together with their respective companions, Agnetha Faltskog and Frida "Anni-Frid" Lyngstad, the first side cut here, "People Need Love," featured the two men singing just as prominently as the women, and was credited to "Bjorn and Benny, Agnetha and Anni-Frid." It was only after its release and the cutting of a further single, "Ring, Ring," that the more familiar sound of the quartet began to coalesce along with the idea of a permanent professional association. Unreleased in the United States until 1995, this album is more of a generic European pop release than an ABBA release; the music has several unusual attributes, including Andersson and Ulvaeus singing lead on several cuts, and also one original song, the moody ballad "Disillusion," co-authored by Agnetha Faltskog. Most of what's here is pleasantly upbeat Europop, with unusually good playing and a lot of spirit, all showing the influence of mainstream American and British pop/rock, including the late-era Beatles and early Elton John, and on the title track, a Phil Spector-proportioned production. Ring Ring was reissued in October of 2001 with extensive notes, state-of-the-art sound, and three bonus tracks: the single B-sides "Merry-Go-Round" and "Santa Rosa" (a smooth piece of California-style rock in the mold of the early Eagles) and the Swedish version of "Ring, Ring" (which charted number one in Sweden to the English version's number two spot).

by Bruce Eder, AMG
Tracklist:

01. Ring, Ring
02. Another Town, Another Train
03. Disillusion
04. People Need Love
05. I Saw It In The Mirror
06. Nina, Pretty Ballerina
07. Love Isn't Easy (But It Sure Is Hard Enough)
08. Me And Bobby And Bobby's Brother
09. He Is Your Brother
10. She's My Kind Of Girl
11. I Am Just A Girl
12. Rock'N'Roll Band
13. Merry-Go-Round [Bonus]
14. Santa Rosa [Bonus]
15. Ring, Ring [Bonus - In Swedish]

Exact Audio Copy V0.99 prebeta 4 from 23. January 2008

Отчёт EAC об извлечении, выполненном 24. июля 2009, 14:11

ABBA / Ring Ring

Дисковод: Optiarc DVD RW AD-7203A Adapter: 3 ID: 0

Режим чтения : Достоверность
Использование точного потока : Да
Отключение кэша аудио : Да
Использование указателей C2 : Нет

Коррекция смещения при чтении : 48
Способность читать области Lead-in и Lead-out : Нет
Заполнение пропущенных сэмплов тишиной : Да
Удаление блоков с тишиной в начале и конце : Нет
При вычислениях CRC использовались нулевые сэмплы : Да
Интерфейс : Установленный внешний ASPI-интерфейс

Выходной формат : Внутренние WAV-операции
Формат сэмплов : 44.100 Гц; 16 бит; стерео


TOC извлечённого CD

Трек | Старт | Длительность | Начальный сектор | Конечный сектор
––––––––––––––––––––––––––––––––––-
1 | 0:00.00 | 3:06.72 | 0 | 14021
2 | 3:06.72 | 3:13.05 | 14022 | 28501
3 | 6:20.02 | 3:07.40 | 28502 | 42566
4 | 9:27.42 | 2:46.15 | 42567 | 55031
5 | 12:13.57 | 2:34.23 | 55032 | 66604
6 | 14:48.05 | 2:53.57 | 66605 | 79636
7 | 17:41.62 | 2:55.15 | 79637 | 92776
8 | 20:37.02 | 2:52.00 | 92777 | 105676
9 | 23:29.02 | 3:19.38 | 105677 | 120639
10 | 26:48.40 | 2:45.30 | 120640 | 133044
11 | 29:33.70 | 3:03.72 | 133045 | 146841
12 | 32:37.67 | 3:11.70 | 146842 | 161236
13 | 35:49.62 | 3:26.50 | 161237 | 176736
14 | 39:16.37 | 3:01.63 | 176737 | 190374
15 | 42:18.25 | 3:10.00 | 190375 | 204624


Характеристики диапазона извлечения и сообщения об ошибках

Выбранный диапазон

Имя файла D:\Раздачи\ABBA SHM-CD\Ring Ring 1973\ABBA - Ring Ring.wav

Пиковый уровень 99.6 %
Качество диапазона 100.0 %
CRC копии 3C35E20C
Копирование… OK

Ошибок не произошло


AccurateRip: сводка

Трек 1 точность не определена (достоверность 10) [4D541E30], AccurateRip вернул [55EC9686]
Трек 2 точность не определена (достоверность 10) [BE983B6E], AccurateRip вернул [3A423D15]
Трек 3 точность не определена (достоверность 9) [FD16BCEC], AccurateRip вернул [EED8DFF9]
Трек 4 точность не определена (достоверность 10) [BFA88294], AccurateRip вернул [F4B54FB8]
Трек 5 точность не определена (достоверность 9) [11A7E4CB], AccurateRip вернул [815DFE60]
Трек 6 точность не определена (достоверность 9) [F64ED43A], AccurateRip вернул [310B3651]
Трек 7 точность не определена (достоверность 10) [D8B8E4D2], AccurateRip вернул [F5AFC418]
Трек 8 точность не определена (достоверность 9) [A09EC131], AccurateRip вернул [4884083F]
Трек 9 точность не определена (достоверность 9) [517DB233], AccurateRip вернул [152A98DE]
Трек 10 точность не определена (достоверность 10) [4FE9E977], AccurateRip вернул [07F26898]
Трек 11 точность не определена (достоверность 9) [5C7FFE66], AccurateRip вернул [58C2C28F]
Трек 12 точность не определена (достоверность 10) [BAC113E8], AccurateRip вернул [915A7F35]
Трек 13 точность не определена (достоверность 9) [E247EE02], AccurateRip вернул [C7FF81F5]
Трек 14 точность не определена (достоверность 10) [AB212FD5], AccurateRip вернул [B64DB0A1]
Трек 15 точность не определена (достоверность 10) [7A69B520], AccurateRip вернул [9CE70598]

Ни один трек не прошёл проверки на точность
В вашей базе может быть иной вариант штамповки диска

Конец отчёта


[CUETools log; Date: 28.07.2016 12:52:00; Version: 2.1.4]
[CTDB TOCID: sR15r73xgSJ4qP9lMc25.u9Tsc8-] found.
Track | CTDB Status
1 | (14/27) Accurately ripped
2 | (14/27) Accurately ripped
3 | (14/27) Accurately ripped
4 | (14/27) Accurately ripped
5 | (14/27) Accurately ripped
6 | (14/27) Accurately ripped
7 | (14/27) Accurately ripped
8 | (14/27) Accurately ripped
9 | (14/27) Accurately ripped
10 | (14/27) Accurately ripped
11 | (14/27) Accurately ripped
12 | (14/27) Accurately ripped
13 | (14/27) Accurately ripped
14 | (13/27) Accurately ripped, or (1/27) differs in 9 samples @02:11:07,02:20:12
15 | (14/27) Accurately ripped
[AccurateRip ID: 0018b190-0117de18-ce0aa80f] found.
Track [ CRC | V2 ] Status
01 [4d541e30|0b8d1a65] (03+00/40) Accurately ripped
02 [be983b6e|c36c7d94] (03+00/42) Accurately ripped
03 [fd16bcec|b647b345] (03+00/41) Accurately ripped
04 [bfa88294|d3d1bb93] (03+00/42) Accurately ripped
05 [11a7e4cb|ca12ef71] (03+00/39) Accurately ripped
06 [f64ed43a|64c8b4de] (03+00/39) Accurately ripped
07 [d8b8e4d2|0775c9fb] (03+00/42) Accurately ripped
08 [a09ec131|8cf7c8b1] (03+00/39) Accurately ripped
09 [517db233|525294b4] (03+00/41) Accurately ripped
10 [4fe9e977|1dfacaa6] (03+00/42) Accurately ripped
11 [5c7ffe66|be6423af] (03+00/39) Accurately ripped
12 [bac113e8|89ca8f63] (03+00/42) Accurately ripped
13 [e247ee02|1978aeff] (03+00/41) Accurately ripped
14 [ab212fd5|cb975780] (03+00/42) Accurately ripped
15 [7a69b520|36bd5316] (03+00/40) Accurately ripped
Offsetted by -814:
01 [67c0ba5a] (03/40) Accurately ripped
02 [4a47b1fc] (03/42) Accurately ripped
03 [b68a548e] (03/41) Accurately ripped
04 [39b9beeb] (03/42) Accurately ripped
05 [6a0b3da9] (03/39) Accurately ripped
06 [23a6063e] (03/39) Accurately ripped
07 [a7a40eec] (03/42) Accurately ripped
08 [df35226e] (03/39) Accurately ripped
09 [6b7fd2ac] (03/41) Accurately ripped
10 [38bea916] (03/42) Accurately ripped
11 [37e15e2f] (03/39) Accurately ripped
12 [42e97192] (03/42) Accurately ripped
13 [c7e5fcea] (03/41) Accurately ripped
14 [560de1e0] (03/42) Accurately ripped
15 [340df728] (03/40) Accurately ripped
Offsetted by -84:
01 [968a786c] (03/40) Accurately ripped
02 [78f280c4] (03/42) Accurately ripped
03 [d653b7b2] (03/41) Accurately ripped
04 [23ffb585] (03/42) Accurately ripped
05 [51204a9b] (03/39) Accurately ripped
06 [b06d1873] (03/39) Accurately ripped
07 [c6802318] (03/42) Accurately ripped
08 [40f478f3] (03/39) Accurately ripped
09 [69c9b452] (03/41) Accurately ripped
10 [7522dcf0] (03/42) Accurately ripped
11 [9c12bcd7] (03/39) Accurately ripped
12 [82b6a5ac] (03/42) Accurately ripped
13 [d45ca742] (03/41) Accurately ripped
14 [cca230ce] (03/42) Accurately ripped
15 [7337fb2a] (03/40) Accurately ripped
Offsetted by 6:
01 [adf3e5c9] (00/40) No match (V2 was not tested)
02 [ad0c0be7] (02/42) Accurately ripped
03 [a243a19c] (02/41) Accurately ripped
04 [83815841] (02/42) Accurately ripped
05 [e20fd008] (00/39) No match (V2 was not tested)
06 [1390c52d] (00/39) No match (V2 was not tested)
07 [44a6dcc8] (02/42) Accurately ripped
08 [a714664b] (00/39) No match (V2 was not tested)
09 [cf8bc8d6] (02/41) Accurately ripped
10 [5d028eb9] (02/42) Accurately ripped
11 [33b98d37] (00/39) No match (V2 was not tested)
12 [168c3bcf] (02/42) Accurately ripped
13 [9e87df19] (02/41) Accurately ripped
14 [ee0737b3] (02/42) Accurately ripped
15 [83b0d81a] (00/40) No match (V2 was not tested)

Track Peak [ CRC32 ] [W/O NULL] [ LOG ]
– 99,6 [3C35E20C] [4BAE4291] CRC32
01 99,5 [86B31E05] [6AEBC682]
02 95,0 [E0422542] [BCE93909]
03 95,7 [44E3E0D3] [9F25E6A0]
04 97,0 [6E7AA710] [AF317C45]
05 97,5 [9C26573C] [1B235C11]
06 97,1 [95CC7BED] [19E71001]
07 97,5 [24DE7FC2] [9B742F03]
08 99,5 [6D9A3B34] [326FAB28]
09 99,6 [88708872] [FAF82BF8]
10 82,5 [AC476BCB] [67C50CCB]
11 95,1 [CE9A2A80] [0583DC5F]
12 95,1 [A4F3018B] [4EE90801]
13 92,7 [450024AC] [91E853D3]
14 96,6 [F87D94F8] [328D884C]
15 96,4 [E46839E8] [E6699685]


* * * * *

ABBA: Japanese SHM-CD Collection (1973-1981)

CD02: ABBA - Waterloo (1974) Repost
EAC | Flac(Image) + Cue + Log & MP3 CBR 320Kbps
2009 | Universal Music, UICY-93887 | ~ 314 or 105 Mb | Scans(jpg) -> 78 Mb
Pop / Disco

ABBA's second (and U.S. debut) album contains the American Top Ten title track, as well as "Honey, Honey," a minor U.S. hit that deserved better. This album is rather unusual in the group's output, however, for the fact that the guys are still featured fairly prominently in some of the vocals, and for the variety of sounds – including reggae, folk-rock, and hard rock – embraced by its songs. The reggae number "Sitting in the Palmtree" is quite remarkable to hear, with its perfect Caribbean beat and those radiant female voices carrying the chorus behind the beat. "King Kong Song" is a good example of hard rock by rote, going through the motions of screaming vocals and over-amplified guitar (courtesy of Janne Schaffer), although even here, when the women's voices jump in on the choruses, it's hard not to listen attentively; the quartet knew what a powerful weapon they had, but not quite how to use it. They get a little closer to their winning formula on the catchy, folky-textured pop song "Hasta Mañana," which sounds like a lost Mary Hopkin number. "Dance (While the Music Still Goes On)" is on the money as the embodiment of the Euro-disco sound that the group would embrace on their future albums, although it also hints at a vague oldies sound, with a melody that somehow reminds this listener of both the Four Seasons' "Dawn" and the Beach Boys' "Don't Worry Baby."

by Bruce Eder, AMG
Tracklist:

02. Sitting In The Palmtree - (1974)
03. King Kong Song - (1974)
04. Hasta Maсana - (1974)
05. My Mama Said - (1974)
06. Dance (While The Music Still Goes On) - (1974)
07. Honey, Honey - (1974)
08. Watch Out - (1974)
09. What About Livingstone - (1974)
10. Gonna Sing You My Lovesong - (1974)
11. Suzy-Hang-Around - (1974)
12. Ring, Ring (US Remix 1974) (Bonus)
13. Waterloo (In Swedish) (Bonus) - (1974)
14. Honey Honey (In Swedish) (Bonus) - (1974

Exact Audio Copy V0.99 prebeta 4 from 23. January 2008

Отчёт EAC об извлечении, выполненном 16. сентября 2009, 0:19

ABBA / Waterloo (Digital Remaster)

Дисковод: Optiarc DVD RW AD-7203A Adapter: 3 ID: 0

Режим чтения : Достоверность
Использование точного потока : Да
Отключение кэша аудио : Нет
Использование указателей C2 : Нет

Коррекция смещения при чтении : 48
Способность читать области Lead-in и Lead-out : Нет
Заполнение пропущенных сэмплов тишиной : Да
Удаление блоков с тишиной в начале и конце : Нет
При вычислениях CRC использовались нулевые сэмплы : Да
Интерфейс : Встроенный Win32-интерфейс для Win NT/2000

Выходной формат : Внутренние WAV-операции
Формат сэмплов : 44.100 Гц; 16 бит; стерео


TOC извлечённого CD

Трек | Старт | Длительность | Начальный сектор | Конечный сектор
––––––––––––––––––––––––––––––––––-
1 | 0:00.00 | 2:48.62 | 0 | 12661
2 | 2:48.62 | 3:38.15 | 12662 | 29026
3 | 6:27.02 | 3:14.13 | 29027 | 43589
4 | 9:41.15 | 3:10.65 | 43590 | 57904
5 | 12:52.05 | 3:14.22 | 57905 | 72476
6 | 16:06.27 | 3:12.50 | 72477 | 86926
7 | 19:19.02 | 2:56.35 | 86927 | 100161
8 | 22:15.37 | 3:47.43 | 100162 | 117229
9 | 26:03.05 | 2:55.25 | 117230 | 130379
10 | 28:58.30 | 3:38.60 | 130380 | 146789
11 | 32:37.15 | 3:18.32 | 146790 | 161671
12 | 35:55.47 | 3:07.18 | 161672 | 175714
13 | 39:02.65 | 2:46.02 | 175715 | 188166
14 | 41:48.67 | 2:58.70 | 188167 | 201586


Характеристики диапазона извлечения и сообщения об ошибках

Выбранный диапазон

Имя файла E:\Раздачи\ABBA SHM-CD\Wateloo 1974\ABBA - Waterloo (Digital Remaster).wav

Пиковый уровень 99.9 %
Качество диапазона 100.0 %
CRC копии A77BDF2D
Копирование… OK

Ошибок не произошло


AccurateRip: сводка

Трек 1 точность не определена (достоверность 6) [ECEFA57F], AccurateRip вернул [85EE07C4]
Трек 2 точность не определена (достоверность 6) [87C7D83B], AccurateRip вернул [75C268D5]
Трек 3 точность не определена (достоверность 6) [32DD3867], AccurateRip вернул [F8868406]
Трек 4 точность не определена (достоверность 6) [E27B9C97], AccurateRip вернул [643413C8]
Трек 5 точность не определена (достоверность 6) [AC57DA0D], AccurateRip вернул [342740D9]
Трек 6 точность не определена (достоверность 6) [CACA9737], AccurateRip вернул [CF6663C2]
Трек 7 точность не определена (достоверность 6) [FDAFE273], AccurateRip вернул [0BD6AA07]
Трек 8 точность не определена (достоверность 6) [B724E68C], AccurateRip вернул [05637301]
Трек 9 точность не определена (достоверность 6) [D974A789], AccurateRip вернул [36D6DABD]
Трек 10 точность не определена (достоверность 6) [50BF10EC], AccurateRip вернул [18425ACD]
Трек 11 точность не определена (достоверность 6) [CCE774B7], AccurateRip вернул [6AC2B718]
Трек 12 точность не определена (достоверность 6) [32ACEEB7], AccurateRip вернул [B80AC0D2]
Трек 13 точность не определена (достоверность 6) [5D648621], AccurateRip вернул [C18B879E]
Трек 14 точность не определена (достоверность 6) [A83DEF7E], AccurateRip вернул [B48C2BBB]

Ни один трек не прошёл проверки на точность
В вашей базе может быть иной вариант штамповки диска

Конец отчёта


[CUETools log; Date: 28.07.2016 13:07:28; Version: 2.1.4]
[CTDB TOCID: c1AF9Z5bSDiwMc4vU6hn8DWFOKg-] found.
Track | CTDB Status
1 | (16/21) Accurately ripped
2 | (16/21) Accurately ripped
3 | (16/21) Accurately ripped
4 | (16/21) Accurately ripped
5 | (16/21) Accurately ripped
6 | (16/21) Accurately ripped
7 | (16/21) Accurately ripped
8 | (16/21) Accurately ripped
9 | (16/21) Accurately ripped
10 | (16/21) Accurately ripped
11 | (16/21) Accurately ripped
12 | (16/21) Accurately ripped
13 | (16/21) Accurately ripped
14 | (16/21) Accurately ripped
[AccurateRip ID: 00174243-00f85e08-c70a7f0e] found.
Track [ CRC | V2 ] Status
01 [ecefa57f|7d996c9a] (02+00/18) Accurately ripped
02 [87c7d83b|455588de] (02+00/18) Accurately ripped
03 [32dd3867|36a749b5] (02+00/18) Accurately ripped
04 [e27b9c97|92be298b] (02+00/18) Accurately ripped
05 [ac57da0d|43cc99c8] (02+00/18) Accurately ripped
06 [caca9737|442f4dcf] (02+00/18) Accurately ripped
07 [fdafe273|ec652381] (02+00/18) Accurately ripped
08 [b724e68c|0ed85417] (02+00/18) Accurately ripped
09 [d974a789|779e7dff] (02+00/18) Accurately ripped
10 [50bf10ec|0e7e63a6] (02+00/18) Accurately ripped
11 [cce774b7|39f78d91] (02+00/18) Accurately ripped
12 [32aceeb7|4d91dbb5] (02+00/18) Accurately ripped
13 [5d648621|ffef0232] (02+00/19) Accurately ripped
14 [a83def7e|74906ef0] (02+00/18) Accurately ripped
Offsetted by -161:
01 [8cf1f1f9] (04/18) Accurately ripped
02 [bb3f1baf] (04/18) Accurately ripped
03 [f24a6518] (04/18) Accurately ripped
04 [f0e8d5e9] (04/18) Accurately ripped
05 [d6f4c785] (04/18) Accurately ripped
06 [7f4fe933] (04/18) Accurately ripped
07 [42a86a7c] (04/18) Accurately ripped
08 [d323d8d8] (04/18) Accurately ripped
09 [ac936acd] (04/18) Accurately ripped
10 [e99b0035] (04/18) Accurately ripped
11 [3cd3da79] (04/18) Accurately ripped
12 [6ec6638a] (04/18) Accurately ripped
13 [9e0bc197] (04/19) Accurately ripped
14 [33ae6126] (04/18) Accurately ripped
Offsetted by 6:
01 [e1324e07] (00/18) No match (V2 was not tested)
02 [1c587398] (00/18) No match (V2 was not tested)
03 [59c4e726] (00/18) No match (V2 was not tested)
04 [c2a71fe3] (00/18) No match (V2 was not tested)
05 [fd01947d] (00/18) No match (V2 was not tested)
06 [8518314c] (00/18) No match (V2 was not tested)
07 [1f9b0668] (00/18) No match (V2 was not tested)
08 [c13f14ab] (00/18) No match (V2 was not tested)
09 [34ee4b30] (00/18) No match (V2 was not tested)
10 [e603ebad] (00/18) No match (V2 was not tested)
11 [a3b5f0fa] (00/18) No match (V2 was not tested)
12 [4bb44ecc] (00/18) No match (V2 was not tested)
13 [e07b1a69] (00/19) No match (V2 was not tested)
14 [0e748e7b] (00/18) No match (V2 was not tested)

Track Peak [ CRC32 ] [W/O NULL] [ LOG ]
– 99,9 [A77BDF2D] [79407888] CRC32
01 99,5 [EC502089] [D7CB3725]
02 97,0 [913B0871] [B8DB14B3]
03 97,0 [80838BD3] [840B35F2]
04 92,8 [A71E6D24] [0095A70C]
05 99,9 [B09602BB] [325E605E]
06 99,4 [231C48ED] [72F3D023]
07 98,8 [0BC3C52A] [79CAADE3]
08 97,0 [ECEB82B6] [4B93F54B]
09 99,6 [D37798CE] [88A0D46F]
10 99,6 [065E468B] [A4C4D888]
11 92,8 [E7329C33] [47442272]
12 98,7 [85640BB9] [5246B026]
13 99,3 [7E14AAAD] [FF416F0E]
14 96,4 [656C33C1] [1898C5DA]


* * * * *

ABBA: Japanese SHM-CD Collection (1973-1981)

CD03: ABBA - Abba (1975) Repost
EAC | Flac(Image) + Cue + Log & MP3 CBR 320Kbps
2009 | Universal Music, UICY-93888 | ~ 318 or 105 Mb | Scans(jpg) -> 32 Mb
Pop / Disco

ABBA's self-titled third album was the one that really broke the group on a worldwide basis. The Eurovision Song Contest winner "Waterloo" had been a major international hit and "Honey, Honey" a more modest one, but ABBA was still an exotic novelty to most of those outside Scandinavia until the release of ABBA in the spring of 1975. "I Do, I Do, I Do, I Do, I Do," a schmaltzy tribute to the sound of '50s orchestra leader Billy Vaughn, seemed an unlikely first single, and indeed it barely scraped into the Top 40 in the U.K. But in Australia, it topped the charts, causing the Australian record company to pull its own second single, "Mamma Mia," off the album. This far more appealing pop/rock number followed its predecessor into the pole position Down Under and also topped the charts throughout Europe. "Bang-A-Boomerang," another big production, was less memorable and had less of an impact, but "S.O.S." brought ABBA back to big success in the U.S. and the U.K., pulling along the first two singles. Beyond these tracks, the LP-only songs showed off the group's eclecticism, from the crunchy hard rock guitar riff that propelled "Hey, Hey Helen" to the ambitious instrumental "Intermezzo No. 1," which showed off Benny Andersson and Björn Ulvaeus' classical leanings and foreshadowed their bigger composing projects of the 1980s. ABBA was a surprisingly effective synthesis of pop and rock styles, surprising because the non-English-speaking world had not produced such effective Anglo-American-style contemporary music before, at least for more than a song or two. (The 2001 reissue of ABBA, first released internationally and finally in the U.S., contains "Crazy World," a song from the sessions for the album later released as a B-side, and a medley of folk songs first heard on a charity album.)

by William Ruhlmann, AMG
Tracklist:

01. Mamma Mia
02. Hey, Hey Helen
03. Tropical Loveland
04. S.O.S.
05. Man In The Middle
06. Bang-A-Boomerang
07. I Do, I Do, I Do, I Do, I Do
08. Rock Me
09. Intermezzo No.1
10. I've Been Waiting For You
11. So Long
12. Crazy World
13. Pick A Bale Of Cotton | On Top Of Old Smokey | Midnight Special

Exact Audio Copy V0.99 prebeta 4 from 23. January 2008

Отчёт EAC об извлечении, выполненном 24. июля 2009, 14:33

ABBA / Abba

Дисковод: Optiarc DVD RW AD-7203A Adapter: 3 ID: 0

Режим чтения : Достоверность
Использование точного потока : Да
Отключение кэша аудио : Да
Использование указателей C2 : Нет

Коррекция смещения при чтении : 48
Способность читать области Lead-in и Lead-out : Нет
Заполнение пропущенных сэмплов тишиной : Да
Удаление блоков с тишиной в начале и конце : Нет
При вычислениях CRC использовались нулевые сэмплы : Да
Интерфейс : Установленный внешний ASPI-интерфейс

Выходной формат : Внутренние WAV-операции
Формат сэмплов : 44.100 Гц; 16 бит; стерео


TOC извлечённого CD

Трек | Старт | Длительность | Начальный сектор | Конечный сектор
––––––––––––––––––––––––––––––––––-
1 | 0:00.00 | 3:35.20 | 0 | 16144
2 | 3:35.20 | 3:18.27 | 16145 | 31021
3 | 6:53.47 | 3:06.50 | 31022 | 45021
4 | 10:00.22 | 3:23.48 | 45022 | 60294
5 | 13:23.70 | 3:03.40 | 60295 | 74059
6 | 16:27.35 | 3:04.70 | 74060 | 87929
7 | 19:32.30 | 3:17.67 | 87930 | 102771
8 | 22:50.22 | 3:05.50 | 102772 | 116696
9 | 25:55.72 | 3:47.03 | 116697 | 133724
10 | 29:43.00 | 3:41.42 | 133725 | 150341
11 | 33:24.42 | 3:06.38 | 150342 | 164329
12 | 36:31.05 | 3:48.55 | 164330 | 181484
13 | 40:19.60 | 4:21.65 | 181485 | 201124


Характеристики диапазона извлечения и сообщения об ошибках

Выбранный диапазон

Имя файла D:\Раздачи\ABBA SHM-CD\ABBA 1975\ABBA - Abba.wav

Пиковый уровень 99.5 %
Качество диапазона 100.0 %
CRC копии 2F6BEFCD
Копирование… OK

Ошибок не произошло


AccurateRip: сводка

Трек 1 точность не определена (достоверность 8) [716A8325], AccurateRip вернул [FEDBD74A]
Трек 2 точность не определена (достоверность 10) [00308EB3], AccurateRip вернул [AF043C1C]
Трек 3 точность не определена (достоверность 10) [D0AF49AA], AccurateRip вернул [D38F2BB9]
Трек 4 точность не определена (достоверность 10) [84CE50F4], AccurateRip вернул [CBBFDC65]
Трек 5 точность не определена (достоверность 10) [FE065410], AccurateRip вернул [1AFB5CBE]
Трек 6 точность не определена (достоверность 10) [F5821111], AccurateRip вернул [F1FE6BA4]
Трек 7 точность не определена (достоверность 10) [747954A8], AccurateRip вернул [25CF1434]
Трек 8 точность не определена (достоверность 10) [4BAE3E18], AccurateRip вернул [C60B8075]
Трек 9 точность не определена (достоверность 10) [2C80D174], AccurateRip вернул [E0BA61FD]
Трек 10 точность не определена (достоверность 10) [091B5738], AccurateRip вернул [241FA333]
Трек 11 точность не определена (достоверность 10) [82052DA5], AccurateRip вернул [89996B47]
Трек 12 точность не определена (достоверность 10) [77656934], AccurateRip вернул [2CBC2575]
Трек 13 точность не определена (достоверность 10) [A3C87CB5], AccurateRip вернул [B23E079F]

Ни один трек не прошёл проверки на точность
В вашей базе может быть иной вариант штамповки диска

Конец отчёта


[CUETools log; Date: 28.07.2016 12:44:58; Version: 2.1.4]
[CTDB TOCID: Iv9Cbp3ES7.4Ph.DvML3VAHgzoM-] found.
Track | CTDB Status
1 | (15/32) Accurately ripped
2 | (15/32) Accurately ripped
3 | (15/32) Accurately ripped
4 | (15/32) Accurately ripped
5 | (15/32) Accurately ripped
6 | (15/32) Accurately ripped
7 | (15/32) Accurately ripped
8 | (15/32) Accurately ripped
9 | (15/32) Accurately ripped
10 | (15/32) Accurately ripped
11 | (15/32) Accurately ripped
12 | (15/32) Accurately ripped
13 | (13/32) Accurately ripped
[AccurateRip ID: 0014d3d6-00d0b2d2-a60a790d] found.
Track [ CRC | V2 ] Status
01 [716a8325|47e98fc3] (00+03/55) Accurately ripped
02 [00308eb3|9b4a7379] (00+03/56) Accurately ripped
03 [d0af49aa|e635e4b8] (00+03/56) Accurately ripped
04 [84ce50f4|57766021] (00+03/56) Accurately ripped
05 [fe065410|be3a1226] (00+03/56) Accurately ripped
06 [f5821111|8d9f8670] (00+03/54) Accurately ripped
07 [747954a8|3b46b0c3] (00+03/54) Accurately ripped
08 [4bae3e18|197abd21] (00+03/55) Accurately ripped
09 [2c80d174|5e6c301f] (00+03/56) Accurately ripped
10 [091b5738|c8d94358] (00+03/55) Accurately ripped
11 [82052da5|9abb23ad] (00+03/55) Accurately ripped
12 [77656934|cbe4bb72] (00+03/54) Accurately ripped
13 [a3c87cb5|294ed478] (00+03/54) Accurately ripped
Offsetted by 133:
01 [d00ac3e6] (05/55) Accurately ripped
02 [f18d8c8f] (05/56) Accurately ripped
03 [e999d775] (05/56) Accurately ripped
04 [31c6e692] (05/56) Accurately ripped
05 [e6856a40] (05/56) Accurately ripped
06 [f32b502e] (05/54) Accurately ripped
07 [ed8eacb0] (05/54) Accurately ripped
08 [e6a2ae9f] (05/55) Accurately ripped
09 [3cb33821] (05/56) Accurately ripped
10 [5c52d765] (05/55) Accurately ripped
11 [a36271b7] (05/55) Accurately ripped
12 [3fecfc27] (05/54) Accurately ripped
13 [b3b131a1] (05/54) Accurately ripped
Offsetted by 6:
01 [358d41bc] (00/55) No match (V2 was not tested)
02 [7e5bb6a5] (00/56) No match (V2 was not tested)
03 [ea0b0eb5] (00/56) No match (V2 was not tested)
04 [405e53be] (00/56) No match (V2 was not tested)
05 [bee72f6f] (00/56) No match (V2 was not tested)
06 [47b0560a] (00/54) No match (V2 was not tested)
07 [38ad8d79] (00/54) No match (V2 was not tested)
08 [2e4dc473] (00/55) No match (V2 was not tested)
09 [932e1a4e] (00/56) No match (V2 was not tested)
10 [e898ff04] (00/55) No match (V2 was not tested)
11 [90cce0d0] (00/55) No match (V2 was not tested)
12 [1448ea94] (00/54) No match (V2 was not tested)
13 [403d688c] (00/54) No match (V2 was not tested)
Offsetted by 213:
01 [00c615ef] (00/55) No match (V2 was not tested)
02 [156266f5] (00/56) No match (V2 was not tested)
03 [874d7720] (00/56) No match (V2 was not tested)
04 [18a38e6f] (00/56) No match (V2 was not tested)
05 [af9181f6] (00/56) No match (V2 was not tested)
06 [338b7675] (00/54) No match (V2 was not tested)
07 [1094c4ab] (00/54) No match (V2 was not tested)
08 [8c9f39e5] (00/55) No match (V2 was not tested)
09 [077f0183] (00/56) No match (V2 was not tested)
10 [af08b6eb] (00/55) No match (V2 was not tested)
11 [b4c74933] (00/55) No match (V2 was not tested)
12 [b6a052de] (00/54) No match (V2 was not tested)
13 [98ddf6ff] (00/54) No match (V2 was not tested)

Track Peak [ CRC32 ] [W/O NULL] [ LOG ]
– 99,5 [2F6BEFCD] [66C6617D] CRC32
01 99,3 [00EE6968] [D0F2DD19]
02 99,4 [65D25646] [4BAFAA88]
03 95,6 [D6B38855] [2F4DC41E]
04 95,1 [72F4DEE3] [F6ACFA5D]
05 97,0 [935B9210] [AB6FF5CE]
06 99,4 [3B6ABE7D] [3C199C39]
07 90,2 [045C9094] [5C06F376]
08 99,4 [DF93421D] [54F95DE7]
09 96,1 [169BDEAF] [63655ED4]
10 99,4 [5F66A75D] [2515EA11]
11 99,5 [8BB694C2] [9D5935C5]
12 99,4 [12C6A0A5] [44E5021B]
13 95,5 [7231D2F5] [5A9B53CD]


* * * * *

ABBA: Japanese SHM-CD Collection (1973-1981)

CD04: ABBA - Arrival (1976) Repost
EAC | Flac(Image) + Cue + Log & MP3 CBR 320Kbps
2009 | Universal Music, UICY-93889 | ~ 295 or 104 Mb | Scans(jpg) -> 23 Mb
Pop / Disco

ABBA's fourth album appeared after the group had arrived as major stars shows the quartet at the absolute top of their game. In addition to "Dancing Queen," which is probably their best-known hit (a number one single on both sides of the Atlantic), the record was filled with brilliant material, including the spirited "When I Kissed the Teacher"; the dramatic, achingly beautiful "Knowing Me, Knowing You" (yet a further hit); the pounding "Money, Money, Money" (still another hit off the album); and the playful "That's Me." Arrival was reissued in October of 2001 in a 24-bit digital transfer, in a handsome gatefold package with two bonus tracks added on. The upgraded sound puts the piano on "Dancing Queen" practically in the room with the listener, and the rhythm guitars by Björn Ulvaeus and Lasse Wellander on "Knowing Me, Knowing You," "When I Kissed the Teacher," and "Dum Dum Diddle" are up very close. The other big beneficiaries are Rutger Gunnarsson's muscular bass playing throughout the album, which never sounded sharper or more effective, and Benny Andersson's keyboards everywhere, which have real presence. Wellander's power chords over the chorus of "Knowing Me, Knowing You" are some of those dramatic musical effects that this group played for maximum effect, which gave their music a raw power that their detractors usually overlooked; in the new edition, it's impossible to ignore. What's more, the sheer impact of the bass drums behind the choruses on "Tiger" will be pretty impressive to any noise freaks. And all of the voices are in very sharp relief; every iota of richness is now on display. So one can now fully appreciate what Frida Lyngstad was hearing when she found the playback of the backing track on "Dancing Queen" beautiful enough to cry over the first time she heard it. The two bonus cuts are both choice additions: the lost B-side, "Happy Hawaii," is a soaring, rocking dance number that got left off the album, and the chronologically related single "Fernando" had been recorded during the making of the LP but not included on it in most of the world. The latter is a profoundly beautiful song that, with its use of flutes and a folk-like melody, is a sort of disco-era follow-up to Simon & Garfunkel's "El Condor Pasa."

by Bruce Eder, AMG
Tracklist:

01. When I Kissed The Teacher
02. Dancing Queen
03. My Love, My Life
04. Dum Dum Diddle
05. Knowing Me, Knowing You
06. Money, Money, Money
07. That's Me
08. Why Did It Have To Be Me
09. Tiger
10. Arrival

Bonus Tracks
11. Fernando
12. Happy Hawaii

Exact Audio Copy V0.99 prebeta 4 from 23. January 2008

Отчёт EAC об извлечении, выполненном 14. июля 2009, 18:46

ABBA / Arrival

Дисковод: Optiarc DVD RW AD-7203A Adapter: 3 ID: 0

Режим чтения : Достоверность
Использование точного потока : Да
Отключение кэша аудио : Да
Использование указателей C2 : Нет

Коррекция смещения при чтении : 48
Способность читать области Lead-in и Lead-out : Нет
Заполнение пропущенных сэмплов тишиной : Да
Удаление блоков с тишиной в начале и конце : Нет
При вычислениях CRC использовались нулевые сэмплы : Да
Интерфейс : Установленный внешний ASPI-интерфейс

Выходной формат : Внутренние WAV-операции
Формат сэмплов : 44.100 Гц; 16 бит; стерео


TOC извлечённого CD

Трек | Старт | Длительность | Начальный сектор | Конечный сектор
––––––––––––––––––––––––––––––––––-
1 | 0:00.00 | 3:02.00 | 0 | 13649
2 | 3:02.00 | 3:50.52 | 13650 | 30951
3 | 6:52.52 | 3:52.33 | 30952 | 48384
4 | 10:45.10 | 2:54.45 | 48385 | 61479
5 | 13:39.55 | 4:03.67 | 61480 | 79771
6 | 17:43.47 | 3:06.38 | 79772 | 93759
7 | 20:50.10 | 3:16.60 | 93760 | 108519
8 | 24:06.70 | 3:22.30 | 108520 | 123699
9 | 27:29.25 | 2:55.57 | 123700 | 136881
10 | 30:25.07 | 3:05.05 | 136882 | 150761
11 | 33:30.12 | 4:15.40 | 150762 | 169926
12 | 37:45.52 | 4:25.58 | 169927 | 189859


Характеристики диапазона извлечения и сообщения об ошибках

Выбранный диапазон

Имя файла D:\Раздачи\ABBA SHM-CD\Arrival 1976\ABBA - Arrival.wav

Пиковый уровень 99.9 %
Качество диапазона 100.0 %
CRC копии FA0AB057
Копирование… OK

Ошибок не произошло


AccurateRip: сводка

Трек 1 точное извлечение (доверие 2) [11C7300E]
Трек 2 точное извлечение (доверие 2) [3B66D870]
Трек 3 точное извлечение (доверие 2) [36242635]
Трек 4 точное извлечение (доверие 2) [2569251E]
Трек 5 точное извлечение (доверие 2) [56172322]
Трек 6 точное извлечение (доверие 2) [C7AB2624]
Трек 7 точное извлечение (доверие 2) [81C57C5F]
Трек 8 точное извлечение (доверие 2) [CC8CBA51]
Трек 9 точное извлечение (доверие 2) [D0D20A41]
Трек 10 точное извлечение (доверие 2) [66440D48]
Трек 11 точное извлечение (доверие 2) [50AA8C66]
Трек 12 точное извлечение (доверие 2) [B8F5C9EB]

Все треки извлечены точно

Конец отчёта


[CUETools log; Date: 28.07.2016 12:49:50; Version: 2.1.4]
[CTDB TOCID: npIIOjyItGjIvhY0XAkeHiyDuTw-] found.
Track | CTDB Status
1 | (16/16) Accurately ripped
2 | (16/16) Accurately ripped
3 | (16/16) Accurately ripped
4 | (16/16) Accurately ripped
5 | (16/16) Accurately ripped
6 | (16/16) Accurately ripped
7 | (15/16) Accurately ripped, or (1/16) differs in 171 samples @01:01:09-01:01:10,01:01:22-01:01:23
8 | (16/16) Accurately ripped
9 | (16/16) Accurately ripped
10 | (16/16) Accurately ripped
11 | (16/16) Accurately ripped
12 | (15/16) Accurately ripped, or (1/16) differs in 12 samples @01:50:22,03:43:21,03:44:45-03:44:46,03:47:20
[AccurateRip ID: 00126d62-00abff4f-9009e30c] found.
Track [ CRC | V2 ] Status
01 [11c7300e|328240b1] (05+03/15) Accurately ripped
02 [3b66d870|9e162be8] (05+03/15) Accurately ripped
03 [36242635|31ec5fa7] (05+03/15) Accurately ripped
04 [2569251e|e3589f40] (05+03/15) Accurately ripped
05 [56172322|07ec49e9] (05+03/15) Accurately ripped
06 [c7ab2624|8cea7a5d] (05+03/15) Accurately ripped
07 [81c57c5f|8e4a0550] (05+03/15) Accurately ripped
08 [cc8cba51|93736e8e] (05+03/15) Accurately ripped
09 [d0d20a41|abc5f51d] (05+03/15) Accurately ripped
10 [66440d48|d8011998] (05+03/15) Accurately ripped
11 [50aa8c66|c7c53e9f] (05+03/15) Accurately ripped
12 [b8f5c9eb|e592b72f] (05+03/15) Accurately ripped
Offsetted by -126:
01 [768957c0] (02/15) Accurately ripped
02 [36a145e6] (02/15) Accurately ripped
03 [2e1e7287] (02/15) Accurately ripped
04 [5ad8a9ca] (02/15) Accurately ripped
05 [7dad5cfa] (02/15) Accurately ripped
06 [a0abee3d] (02/15) Accurately ripped
07 [45023e35] (02/15) Accurately ripped
08 [344b2fe7] (02/15) Accurately ripped
09 [bf435f06] (02/15) Accurately ripped
10 [8da843a2] (02/15) Accurately ripped
11 [1eea3b68] (02/15) Accurately ripped
12 [62f37531] (02/15) Accurately ripped
Offsetted by -298:
01 [8690fe6c] (00/15) No match (V2 was not tested)
02 [272e0689] (00/15) No match (V2 was not tested)
03 [bc0facf7] (00/15) No match (V2 was not tested)
04 [c4381154] (00/15) No match (V2 was not tested)
05 [85264aec] (00/15) No match (V2 was not tested)
06 [dd6c4203] (00/15) No match (V2 was not tested)
07 [4cb99c36] (00/15) No match (V2 was not tested)
08 [0150a08d] (00/15) No match (V2 was not tested)
09 [dd83e8be] (00/15) No match (V2 was not tested)
10 [60c209ce] (00/15) No match (V2 was not tested)
11 [38d72639] (00/15) No match (V2 was not tested)
12 [70cc324d] (00/15) No match (V2 was not tested)
Offsetted by 6:
01 [50eff86e] (00/15) No match (V2 was not tested)
02 [708979c8] (00/15) No match (V2 was not tested)
03 [48772f67] (00/15) No match (V2 was not tested)
04 [c827e1aa] (00/15) No match (V2 was not tested)
05 [99bb5ec4] (00/15) No match (V2 was not tested)
06 [1f677e06] (00/15) No match (V2 was not tested)
07 [c2d14ba2] (00/15) No match (V2 was not tested)
08 [53fbaaed] (00/15) No match (V2 was not tested)
09 [10cc0925] (00/15) No match (V2 was not tested)
10 [727a8565] (00/15) No match (V2 was not tested)
11 [3d645767] (00/15) No match (V2 was not tested)
12 [b221a1ca] (00/15) No match (V2 was not tested)

Track Peak [ CRC32 ] [W/O NULL] [ LOG ]
– 99,9 [FA0AB057] [C5EE32E6] CRC32
01 99,9 [E0DFFA7B] [13A77F3E]
02 95,1 [ECB07F2A] [A41342EB]
03 99,6 [A2B19A0A] [E10E8B97]
04 97,0 [ABC2E20A] [3B41F130]
05 95,1 [9998076B] [B87F7C1A]
06 95,4 [E2BDDC2B] [42758953]
07 95,1 [2B6A2BB4] [761B157B]
08 99,9 [2FD0B1A3] [06B81470]
09 95,1 [9AD5BB07] [35BF645E]
10 95,6 [65B3CC56] [2B6BD01A]
11 92,7 [ED8BA9FD] [3400E606]
12 95,8 [6C1C6247] [56E810D8]


* * * * *

ABBA: Japanese SHM-CD Collection (1973-1981)

CD05: ABBA - The Album (1977) Repost
EAC | Flac(Image) + Cue + Log & MP3 CBR 320Kbps
2009 | Universal Music, UICY-93890 | ~ 313 or 106 Mb | Scans(jpg) -> 30 Mb
Pop / Disco

ABBA's fifth album was a marked step forward for the group, having evolved out of Europop music into a world-class rock act over their previous two albums, they now proceeded to absorb and assimilate some of the influences around them, particularly the laid-back California sound of Fleetwood Mac (curiously, like ABBA, then a band with two couples at its center), as well as some of the attributes of progressive rock. That they did this without compromising their essential virtues as a pop ensemble makes this album seem even more extraordinary, though at the time nobody bothered to analyze it – The Album was simply an incredibly popular release, yielding two British number one singles in "The Name of the Game" and "Take a Chance on Me" (which made the Top Five in America, their second-best showing after "Dancing Queen"), and achieving the quartet's highest-ever showing on the U.S. LP charts, reaching the Top 20 and selling a million copies in six months. The opening number, "Eagle," dominated by synthesizers and soaring larger-than-life vocal flourishes, is followed by the more lyrical "Take a Chance on Me," with its luminous a cappella opening. The whole album is like that, effortlessly straddling hard rock, pop/rock, dance-rock, and progressive rock – though the hits tend to stand out in highest relief, there are superb album tracks here, including the driving, lushly harmonized "Move On" and "Hole in Your Soul," which provides guitarist Lasse Wellander with a beautiful showcase for his lead electric playing. The second side of the album is dominated by material from a "mini-musical" called Girl with the Golden Hair that Benny Andersson and Björn Ulvaeus wrote for the concerts on their just-ended tour intended to be used in a dramatically coherent storytelling context. Two of its songs, "Thank You for the Music" and "I Wonder (Devotion)," are less exciting than the straight rock material found elsewhere on the album, though the former became a popular concert number for the quartet, while the latter is the kind of lushly melodic, moodily reflective song that could easily have graced a Barbra Streisand album of the era. The closer, "I'm a Marionette," however, is a startlingly bold attempt to recast the influence of Kurt Weill in a hard rock mode, ending The Album on a high note, musically and artistically.

by Bruce Eder, AMG
Tracklist:

01. Eagle
02. Take A Chance On Me
03. One Man, One Woman
04. The Name Of The Game
05. Move On
06. Hole In Your Soul
07. 'The Girl With The Golden Hair' 3 Scenes From A Mini Musical: Thank You For T…
08. 'The Girl With The Golden Hair' 3 Scenes From A Mini Musical: I Wonder (Depar…
09. 'The Girl With The Golden Hair' 3 Scenes From A Mini Musical: I'm A Marionette
10. Thank You For The Music (Doris Day Version)

Exact Audio Copy V0.99 prebeta 4 from 23. January 2008

Отчёт EAC об извлечении, выполненном 24. июля 2009, 14:50

ABBA / The Album

Дисковод: Optiarc DVD RW AD-7203A Adapter: 3 ID: 0

Режим чтения : Достоверность
Использование точного потока : Да
Отключение кэша аудио : Да
Использование указателей C2 : Нет

Коррекция смещения при чтении : 48
Способность читать области Lead-in и Lead-out : Нет
Заполнение пропущенных сэмплов тишиной : Да
Удаление блоков с тишиной в начале и конце : Нет
При вычислениях CRC использовались нулевые сэмплы : Да
Интерфейс : Установленный внешний ASPI-интерфейс

Выходной формат : Внутренние WAV-операции
Формат сэмплов : 44.100 Гц; 16 бит; стерео


TOC извлечённого CD

Трек | Старт | Длительность | Начальный сектор | Конечный сектор
––––––––––––––––––––––––––––––––––-
1 | 0:00.00 | 5:53.12 | 0 | 26486
2 | 5:53.12 | 4:03.70 | 26487 | 44781
3 | 9:57.07 | 4:37.10 | 44782 | 65566
4 | 14:34.17 | 4:53.70 | 65567 | 87611
5 | 19:28.12 | 4:45.30 | 87612 | 109016
6 | 24:13.42 | 3:43.33 | 109017 | 125774
7 | 27:57.00 | 3:51.67 | 125775 | 143166
8 | 31:48.67 | 4:34.70 | 143167 | 163786
9 | 36:23.62 | 4:05.70 | 163787 | 182231
10 | 40:29.57 | 4:03.43 | 182232 | 200499


Характеристики диапазона извлечения и сообщения об ошибках

Выбранный диапазон

Имя файла D:\Раздачи\ABBA SHM-CD\The Album 1977\ABBA - The Album.wav

Пиковый уровень 99.8 %
Качество диапазона 100.0 %
CRC копии F6B2075B
Копирование… OK

Ошибок не произошло


AccurateRip: сводка

Трек 1 точное извлечение (доверие 2) [9088C8F8]
Трек 2 точное извлечение (доверие 2) [273D306F]
Трек 3 точное извлечение (доверие 2) [74562575]
Трек 4 точное извлечение (доверие 2) [69356695]
Трек 5 точное извлечение (доверие 2) [39C4A9F7]
Трек 6 точное извлечение (доверие 2) [AE82CA90]
Трек 7 точное извлечение (доверие 2) [8D5B67E6]
Трек 8 точное извлечение (доверие 2) [A82146DD]
Трек 9 точное извлечение (доверие 2) [FE4190A8]
Трек 10 точное извлечение (доверие 2) [5776C835]

Все треки извлечены точно

Конец отчёта


[CUETools log; Date: 28.07.2016 12:56:47; Version: 2.1.4]
[CTDB TOCID: zyu3XH5HRBVA81UceSY5FWF3hHg-] found.
Track | CTDB Status
1 | (14/37) Accurately ripped
2 | (14/37) Accurately ripped
3 | (14/37) Accurately ripped
4 | (13/37) Accurately ripped, or (1/37) differs in 917 samples @04:50:39-04:50:41,04:51:17-04:51:18,04:51:66-04:51:71
5 | (14/37) Accurately ripped
6 | (14/37) Accurately ripped
7 | (14/37) Accurately ripped
8 | (14/37) Accurately ripped
9 | (14/37) Accurately ripped
10 | (13/37) Accurately ripped
[AccurateRip ID: 001187fe-008a6367-8f0a710a] found.
Track [ CRC | V2 ] Status
01 [9088c8f8|8e15e190] (05+07/65) Accurately ripped
02 [273d306f|0089d611] (05+07/65) Accurately ripped
03 [74562575|1f44e6de] (05+07/64) Accurately ripped
04 [69356695|07d1206d] (05+07/65) Accurately ripped
05 [39c4a9f7|e415b571] (05+07/65) Accurately ripped
06 [ae82ca90|63a4ca2f] (05+07/65) Accurately ripped
07 [8d5b67e6|0ae2f465] (05+07/65) Accurately ripped
08 [a82146dd|76e97a2d] (05+07/66) Accurately ripped
09 [fe4190a8|747b6e9f] (05+07/66) Accurately ripped
10 [5776c835|605761d6] (05+07/64) Accurately ripped
Offsetted by -730:
01 [2f76762e] (02/65) Accurately ripped
02 [642fb57e] (02/65) Accurately ripped
03 [469599b3] (02/64) Accurately ripped
04 [c2db42a9] (02/65) Accurately ripped
05 [5b376b23] (02/65) Accurately ripped
06 [306405e2] (02/65) Accurately ripped
07 [f67e6f21] (02/65) Accurately ripped
08 [325a5c38] (02/66) Accurately ripped
09 [7e1a1def] (02/66) Accurately ripped
10 [d1a53fff] (02/64) Accurately ripped
Offsetted by 6:
01 [a7ac433a] (00/65) No match (V2 was not tested)
02 [f9a4e845] (00/65) No match (V2 was not tested)
03 [778ff948] (00/64) No match (V2 was not tested)
04 [d38a8da4] (00/65) No match (V2 was not tested)
05 [91cc60a8] (00/65) No match (V2 was not tested)
06 [ba01cd02] (00/65) No match (V2 was not tested)
07 [385c6eec] (00/65) No match (V2 was not tested)
08 [1ae7c7c1] (00/66) No match (V2 was not tested)
09 [4fea9ce2] (00/66) No match (V2 was not tested)
10 [1fb1e928] (00/64) No match (V2 was not tested)

Track Peak [ CRC32 ] [W/O NULL] [ LOG ]
– 99,8 [F6B2075B] [756E951D] CRC32
01 99,6 [E0571A46] [3ED936BB]
02 95,1 [51503DCC] [2E3AAAEA]
03 95,1 [7BF86F9C] [6C292F33]
04 95,1 [648418E3] [673B0075]
05 95,1 [3266681C] [557EF53B]
06 95,1 [6DFCAEC0] [FF48D010]
07 99,8 [57613EE2] [26505F7B]
08 90,2 [7E43ED9B] [A7D35DE8]
09 92,8 [BC75D9B1] [2071B551]
10 96,4 [F1FD04F3] [DB18CF61]


* * * * *

ABBA: Japanese SHM-CD Collection (1973-1981)

CD06: ABBA - Voulez-Vous (1979) Repost
EAC | Flac(Image) + Cue + Log & MP3 CBR 320Kbps
2009 | Universal Music, UICY-93891 | ~ 394 or 128 Mb | Scans(jpg) -> 31 Mb
Pop / Disco

That it took nearly a year to record Voulez-Vous is an indicator of the creative and personal constraints in which the four members of ABBA found themselves at the end of the '70s. Their sixth album coincided with the marital split between Agnetha Fältskog and Björn Ulvaeus and the massively shifting currents in popular music, with disco, which had been on the wane, suddenly undergoing a renaissance thanks to the 1977 movie Saturday Night Fever. Thus, about half of Voulez-Vous shows the heavy influence of the Bee Gees from their megahit disco era. This is shown not just in the fact that the backing track for the title song was cut at Criteria Studios in Miami, where the Bee Gees had cut Main Course, Children of the World, and most of the rest of their disco-era music, but through the funky beat that ran through much of the material; yet the album still had a pair of soft, lyrical Europop-style ballads, "I Have a Dream" and "Chiquitita," both of which proved as popular as any of the more dance-oriented songs, and were reminders of Fältskog's and Ulvaeus' roots, in particular, in popular folk music during the mid- to late '60s. Those two songs, plus "Angeleyes," "Does Your Mother Know," and the title cut, were all Top Five singles in England, although only "Chiquitita" and "Does Your Mother Know" were Top 40 hits in America, where the album's sales peaked at a modest 500,000 or so.

by Bruce Eder, AMG
Tracklist:

01. As Good As New
02. Voulez-Vous
03. I Have A Dream
04. Angeleyes
05. The King Has Lost His Crown
06. Does Your Mother Know
07. If It Wasn't For The Night
08. Chiquitita
09. Lovers (Live A Little Longer)
10. Kisses Of Fire

Bonus Tracks
11. Summer Night City
12. Lovelight
13. Gimme! Gimme! Gimme! (A Man After Midnight)

Exact Audio Copy V0.99 prebeta 4 from 23. January 2008

Отчёт EAC об извлечении, выполненном 14. июля 2009, 19:37

ABBA / Voulez-Vous

Дисковод: Optiarc DVD RW AD-7203A Adapter: 3 ID: 0

Режим чтения : Достоверность
Использование точного потока : Да
Отключение кэша аудио : Да
Использование указателей C2 : Нет

Коррекция смещения при чтении : 48
Способность читать области Lead-in и Lead-out : Нет
Заполнение пропущенных сэмплов тишиной : Да
Удаление блоков с тишиной в начале и конце : Нет
При вычислениях CRC использовались нулевые сэмплы : Да
Интерфейс : Установленный внешний ASPI-интерфейс

Выходной формат : Внутренние WAV-операции
Формат сэмплов : 44.100 Гц; 16 бит; стерео


TOC извлечённого CD

Трек | Старт | Длительность | Начальный сектор | Конечный сектор
––––––––––––––––––––––––––––––––––-
1 | 0:00.00 | 3:24.52 | 0 | 15351
2 | 3:24.52 | 5:09.13 | 15352 | 38539
3 | 8:33.65 | 4:46.22 | 38540 | 60011
4 | 13:20.12 | 4:23.20 | 60012 | 79756
5 | 17:43.32 | 3:33.60 | 79757 | 95791
6 | 21:17.17 | 3:15.50 | 95792 | 110466
7 | 24:32.67 | 5:11.00 | 110467 | 133791
8 | 29:43.67 | 5:27.03 | 133792 | 158319
9 | 35:10.70 | 3:31.62 | 158320 | 174206
10 | 38:42.57 | 3:20.38 | 174207 | 189244
11 | 42:03.20 | 3:35.10 | 189245 | 205379
12 | 45:38.30 | 3:48.10 | 205380 | 222489
13 | 49:26.40 | 4:52.45 | 222490 | 244434


Характеристики диапазона извлечения и сообщения об ошибках

Выбранный диапазон

Имя файла D:\Раздачи\ABBA SHM-CD\Voulez -Vous 1979\ABBA - Voulez-Vous.wav

Пиковый уровень 99.6 %
Качество диапазона 100.0 %
CRC копии 250A0561
Копирование… OK

Ошибок не произошло


AccurateRip: сводка

Трек 1 точность не определена (достоверность 2) [E8808E1E], AccurateRip вернул [6FBBD965]
Трек 2 точность не определена (достоверность 2) [5C92795F], AccurateRip вернул [F0C8BDAB]
Трек 3 точность не определена (достоверность 2) [2DA9BFBC], AccurateRip вернул [6A77AD4D]
Трек 4 точность не определена (достоверность 2) [5CCAEDBB], AccurateRip вернул [76CDF1F2]
Трек 5 точность не определена (достоверность 2) [91F208FD], AccurateRip вернул [0BC82A15]
Трек 6 точность не определена (достоверность 2) [A3F68EB1], AccurateRip вернул [14A96209]
Трек 7 точность не определена (достоверность 2) [14359ABA], AccurateRip вернул [4F182343]
Трек 8 точность не определена (достоверность 2) [BC2C24FA], AccurateRip вернул [4B12EA98]
Трек 9 точность не определена (достоверность 2) [A2E5CC25], AccurateRip вернул [BC2BCD39]
Трек 10 точность не определена (достоверность 2) [B3A48866], AccurateRip вернул [42450B8C]
Трек 11 точность не определена (достоверность 2) [B34ADE5B], AccurateRip вернул [9545986B]
Трек 12 точность не определена (достоверность 2) [15D07A63], AccurateRip вернул [FC6019CC]
Трек 13 точность не определена (достоверность 2) [22800D81], AccurateRip вернул [4440D24A]

Ни один трек не прошёл проверки на точность
В вашей базе может быть иной вариант штамповки диска

Конец отчёта


[CUETools log; Date: 28.07.2016 13:03:02; Version: 2.1.4]
[CTDB TOCID: Ya6U_c1L3u3..LLrYuMUkJjEFtk-] found.
Track | CTDB Status
1 | (12/12) Accurately ripped
2 | (12/12) Accurately ripped
3 | (12/12) Accurately ripped
4 | (12/12) Accurately ripped
5 | (12/12) Accurately ripped
6 | (12/12) Accurately ripped
7 | (11/12) Accurately ripped
8 | (12/12) Accurately ripped
9 | (12/12) Accurately ripped
10 | (12/12) Accurately ripped
11 | (12/12) Accurately ripped
12 | (12/12) Accurately ripped
13 | (12/12) Accurately ripped
[AccurateRip ID: 001a5d2d-0106ed4c-a80cbb0d] found.
Track [ CRC | V2 ] Status
01 [e8808e1e|3d4d7487] (02+02/13) Accurately ripped
02 [5c92795f|3613eb96] (02+02/13) Accurately ripped
03 [2da9bfbc|abdb25a1] (02+02/13) Accurately ripped
04 [5ccaedbb|be49f2a9] (02+02/13) Accurately ripped
05 [91f208fd|1c0646fc] (02+02/13) Accurately ripped
06 [a3f68eb1|83984755] (02+02/13) Accurately ripped
07 [14359aba|585faf37] (02+02/13) Accurately ripped
08 [bc2c24fa|e5683d82] (02+02/13) Accurately ripped
09 [a2e5cc25|e97cc2be] (02+02/13) Accurately ripped
10 [b3a48866|675eee79] (02+02/13) Accurately ripped
11 [b34ade5b|55d06ea2] (02+02/13) Accurately ripped
12 [15d07a63|9044df8b] (02+02/13) Accurately ripped
13 [22800d81|3e5659ed] (02+02/13) Accurately ripped
Offsetted by -535:
01 [6fbbd965] (05/13) Accurately ripped
02 [f0c8bdab] (05/13) Accurately ripped
03 [6a77ad4d] (05/13) Accurately ripped
04 [76cdf1f2] (05/13) Accurately ripped
05 [0bc82a15] (05/13) Accurately ripped
06 [14a96209] (05/13) Accurately ripped
07 [4f182343] (05/13) Accurately ripped
08 [4b12ea98] (05/13) Accurately ripped
09 [bc2bcd39] (05/13) Accurately ripped
10 [42450b8c] (05/13) Accurately ripped
11 [9545986b] (05/13) Accurately ripped
12 [fc6019cc] (05/13) Accurately ripped
13 [4440d24a] (05/13) Accurately ripped
Offsetted by -30:
01 [4f58e586] (02/13) Accurately ripped
02 [3506eb4e] (02/13) Accurately ripped
03 [51064a4f] (02/13) Accurately ripped
04 [2a018084] (02/13) Accurately ripped
05 [8923875e] (02/13) Accurately ripped
06 [cf5bff8d] (02/13) Accurately ripped
07 [fc522d53] (02/13) Accurately ripped
08 [4baf69fa] (02/13) Accurately ripped
09 [4d6d9815] (02/13) Accurately ripped
10 [6f0c5280] (02/13) Accurately ripped
11 [2ff51c32] (02/13) Accurately ripped
12 [24337327] (02/13) Accurately ripped
13 [bdde01c8] (02/13) Accurately ripped
Offsetted by -1265:
01 [a0af1e4b] (00/13) No match (V2 was not tested)
02 [1a9c06a9] (00/13) No match (V2 was not tested)
03 [26bd4f67] (00/13) No match (V2 was not tested)
04 [af574d65] (00/13) No match (V2 was not tested)
05 [37092353] (00/13) No match (V2 was not tested)
06 [b49d0424] (00/13) No match (V2 was not tested)
07 [1b549f97] (00/13) No match (V2 was not tested)
08 [3363003a] (00/13) No match (V2 was not tested)
09 [9b01f961] (00/13) No match (V2 was not tested)
10 [93c7fb5d] (00/13) No match (V2 was not tested)
11 [676e3aa7] (00/13) No match (V2 was not tested)
12 [201f9a37] (00/13) No match (V2 was not tested)
13 [18780a9e] (00/13) No match (V2 was not tested)
Offsetted by 6:
01 [7939a212] (00/13) No match (V2 was not tested)
02 [91c9edcc] (00/13) No match (V2 was not tested)
03 [8c0d452b] (00/13) No match (V2 was not tested)
04 [45f7ea98] (00/13) No match (V2 was not tested)
05 [24f09007] (00/13) No match (V2 was not tested)
06 [bcadab6e] (00/13) No match (V2 was not tested)
07 [1fda6119] (00/13) No match (V2 was not tested)
08 [4601fe4f] (00/13) No match (V2 was not tested)
09 [e0a50dfb] (00/13) No match (V2 was not tested)
10 [1daee634] (00/13) No match (V2 was not tested)
11 [9255e489] (00/13) No match (V2 was not tested)
12 [1633978f] (00/13) No match (V2 was not tested)
13 [86cd4d7e] (00/13) No match (V2 was not tested)

Track Peak [ CRC32 ] [W/O NULL] [ LOG ]
– 99,5 [250A0561] [C9413351] CRC32
01 99,5 [290FEA9C] [A471CAB4]
02 97,0 [5250F330] [554B5FD4]
03 90,2 [CFE01082] [F3B7D8A3]
04 97,0 [414917DF] [E6C9787E]
05 95,1 [00FFE451] [95963AAB]
06 97,0 [A2467602] [E4DCA796]
07 97,0 [E914B71B] [9A6B4465]
08 95,1 [BB2D96CD] [AD826555]
09 95,1 [C0FE21E9] [F63EFDEE]
10 99,5 [E0E711F9] [5EAE8B39]
11 97,0 [C9F435F0] [740F67D1]
12 94,6 [58885F1E] [C5F253ED]
13 97,0 [7329564D] [32C75861]


* * * * *

ABBA: Japanese SHM-CD Collection (1973-1981)

CD07: ABBA - Super Trouper (1981) Repost
EAC | Flac(Image) + Cue + Log & MP3 CBR 320Kbps
2009 | Universal Music, UICY-93892 | ~ 361 or 119 Mb | Scans(jpg) -> 26 Mb
Pop / Disco

Commercially, Super Trouper, ABBA's seventh album, was another worldwide blockbuster. "The Winner Takes It All," its lead-off single, released several months in advance of the album in most territories, was a smash; for example, it was the group's 14th consecutive Top Five hit in the U.K. and their eighth number one there. The title track was also a British chart-topper (their last), as was the album, their sixth. "Lay All Your Love on Me" made the U.K. Top Ten, and "On and on and On" was released as a single in some countries, hitting the Top Ten in Australia. (Typically, American success was more modest, though the album went gold, and "The Winner Takes It All" was a number one adult contemporary and Top Ten pop hit.) Musically, Super Trouper found ABBA, always trend-conscious, taking account of the passing of disco and returning to the pop/rock sound typical of their early albums. Only "Lay All Your Love on Me" employed a dance approach. The title song had the kind of martial beat and pop sound more in keeping with the group that had broken through with "Mamma Mia" and "S.O.S.," and "On and on and On" paid homage to one of their chief influences, the Beach Boys, with an arrangement reminiscent of "Do It Again." Lyrically, there was a distinct sense of world weariness and melancholy, from the divorce lamentations of "The Winner Takes It All" to the dissatisfaction with touring expressed in "Super Trouper" and even the nostalgia for a simpler time in "Our Last Summer." For performers on top of the world, the members of ABBA were putting an unusual amount of what sounded like real unhappiness into their pop music.

by William Ruhlmann, AMG
Tracklist:

01. Super Trouper
02. The Winner Takes It All
03. On And On And On
04. Andante, Andante
05. Me And I
06. Happy New Year
07. Our Last Summer
08. The Piper
09. Lay All Your Love On Me
10. The Way Old Friends Do

Bonus Tracks
11. Elaine
12. Put On Your White Sombrero

Exact Audio Copy V0.99 prebeta 4 from 23. January 2008

Отчёт EAC об извлечении, выполненном 14. июля 2009, 20:05

ABBA / Super Trouper [Polar]

Дисковод: Optiarc DVD RW AD-7203A Adapter: 3 ID: 0

Режим чтения : Достоверность
Использование точного потока : Да
Отключение кэша аудио : Да
Использование указателей C2 : Нет

Коррекция смещения при чтении : 48
Способность читать области Lead-in и Lead-out : Нет
Заполнение пропущенных сэмплов тишиной : Да
Удаление блоков с тишиной в начале и конце : Нет
При вычислениях CRC использовались нулевые сэмплы : Да
Интерфейс : Установленный внешний ASPI-интерфейс

Выходной формат : Внутренние WAV-операции
Формат сэмплов : 44.100 Гц; 16 бит; стерео


TOC извлечённого CD

Трек | Старт | Длительность | Начальный сектор | Конечный сектор
––––––––––––––––––––––––––––––––––-
1 | 0:00.00 | 4:14.45 | 0 | 19094
2 | 4:14.45 | 4:54.55 | 19095 | 41199
3 | 9:09.25 | 3:40.20 | 41200 | 57719
4 | 12:49.45 | 4:38.65 | 57720 | 78634
5 | 17:28.35 | 4:55.07 | 78635 | 100766
6 | 22:23.42 | 4:23.60 | 100767 | 120551
7 | 26:47.27 | 4:19.55 | 120552 | 140031
8 | 31:07.07 | 3:27.05 | 140032 | 155561
9 | 34:34.12 | 4:34.35 | 155562 | 176146
10 | 39:08.47 | 2:57.70 | 176147 | 189491
11 | 42:06.42 | 3:47.63 | 189492 | 206579
12 | 45:54.30 | 4:32.37 | 206580 | 227016


Характеристики диапазона извлечения и сообщения об ошибках

Выбранный диапазон

Имя файла D:\Раздачи\ABBA SHM-CD\Super Trouper1980\ABBA - Super Trouper [Polar].wav

Пиковый уровень 99.8 %
Качество диапазона 100.0 %
CRC копии 944B80A6
Копирование… OK

Ошибок не произошло


AccurateRip: сводка

Трек 1 точное извлечение (доверие 3) [9040826C]
Трек 2 точное извлечение (доверие 2) [9E21DEDF]
Трек 3 точное извлечение (доверие 2) [FC8BE4FE]
Трек 4 точное извлечение (доверие 2) [AD010CB7]
Трек 5 точное извлечение (доверие 2) [563C9C66]
Трек 6 точное извлечение (доверие 2) [012C256A]
Трек 7 точное извлечение (доверие 2) [9579A849]
Трек 8 точное извлечение (доверие 2) [D80275DD]
Трек 9 точное извлечение (доверие 2) [5320049C]
Трек 10 точное извлечение (доверие 2) [8578DD53]
Трек 11 точное извлечение (доверие 2) [9DBAB25C]
Трек 12 точное извлечение (доверие 2) [92FA88F0]

Все треки извлечены точно

Конец отчёта


[CUETools log; Date: 28.07.2016 12:54:09; Version: 2.1.4]
[CTDB TOCID: 5Jv8eDgPupFOfP4UckvJx6jgrzQ-] found.
Track | CTDB Status
1 | (12/32) Accurately ripped
2 | (12/32) Accurately ripped
3 | (12/32) Accurately ripped
4 | (12/32) Accurately ripped
5 | (12/32) Accurately ripped
6 | (12/32) Accurately ripped
7 | (12/32) Accurately ripped
8 | (12/32) Accurately ripped
9 | (12/32) Accurately ripped
10 | (12/32) Accurately ripped
11 | (12/32) Accurately ripped
12 | (12/32) Accurately ripped
[AccurateRip ID: 0017155f-00d61761-a20bd20c] found.
Track [ CRC | V2 ] Status
01 [9040826c|2fb48553] (09+07/56) Accurately ripped
02 [9e21dedf|512c6307] (08+07/55) Accurately ripped
03 [fc8be4fe|9993fafe] (08+06/53) Accurately ripped
04 [ad010cb7|6282b20d] (08+06/53) Accurately ripped
05 [563c9c66|a3b2e364] (08+06/53) Accurately ripped
06 [012c256a|626fe5cf] (08+06/53) Accurately ripped
07 [9579a849|cdf5433b] (08+06/53) Accurately ripped
08 [d80275dd|834e29aa] (08+07/55) Accurately ripped
09 [5320049c|cfd4da08] (08+06/53) Accurately ripped
10 [8578dd53|02bf4e20] (08+06/53) Accurately ripped
11 [9dbab25c|e8a58870] (08+05/51) Accurately ripped
12 [92fa88f0|4ad4a3a1] (08+06/52) Accurately ripped
Offsetted by -730:
01 [5b961a4d] (02/56) Accurately ripped
02 [fa2ffe38] (02/55) Accurately ripped
03 [7fc3fb0d] (02/53) Accurately ripped
04 [df3f5a91] (02/53) Accurately ripped
05 [cccc0514] (02/53) Accurately ripped
06 [81f9bafa] (02/53) Accurately ripped
07 [c4efe8ee] (02/53) Accurately ripped
08 [ecba1329] (02/55) Accurately ripped
09 [231de08f] (02/53) Accurately ripped
10 [a494e97d] (02/53) Accurately ripped
11 [635fcd5d] (02/51) Accurately ripped
12 [be8aa3bf] (02/52) Accurately ripped

Track Peak [ CRC32 ] [W/O NULL] [ LOG ]
– 99,8 [944B80A6] [06CACD99] CRC32
01 98,5 [E97F7BDD] [1A09DDC2]
02 99,3 [7B466444] [53543C84]
03 99,3 [7A8EFB4D] [03FA8DBB]
04 95,1 [1371649F] [51381163]
05 95,1 [1DAD60D5] [E29AF013]
06 95,1 [0F4579F8] [791FCBFB]
07 95,1 [C63969F8] [19B1A718]
08 95,1 [2207D8A8] [0B68B46F]
09 97,0 [FB40D913] [080EDB64]
10 92,8 [3119EE6A] [597777B1]
11 92,8 [3C33146B] [3E8F44C1]
12 99,8 [C31A49BF] [AAE62782]


* * * * *

ABBA: Japanese SHM-CD Collection (1973-1981)

CD08: ABBA - The Visitors (1981) Repost
EAC | Flac(Image) + Cue + Log & MP3 CBR 320Kbps
2009 | Universal Music, UICY-93893 | ~ 383 or 135 Mb | Scans(jpg) -> 30 Mb
Pop / Disco

ABBA's final album was recorded during a period of major personal shakeups, principally in the decision by Benny Andersson and Frida to follow the same route to divorce that had already been taken by Björn Ulvaeus and Agnetha Faltskog. Both male members of the group would soon remarry, but at the time, despite all of these changes in their circumstances, The Visitors was never intended as ABBA's swan song – they were to go on recording together. That may explain why, rather than a threadbare, thrown-together feel, The Visitors is a beautifully made, very sophisticated album, filled with serious but never downbeat songs, all beautifully sung and showing off some of the bold songwriting efforts. The title track is a topical song about Soviet dissidents that also manages to be very catchy, while "I Let the Music Speak" sounds like a Broadway number (and a very good one, at that) in search of a musical to be part of, and "When All Is Said and Done" is a serious, achingly beautiful ballad with a lot to say about their personal situations – even "Two for the Price of One," a lighthearted song sung by Björn Ulvaeus about answering a personal advertisement, offered several catchy hooks and beautiful backup singing. "Like an Angel Passing Through My Room" ended the original album on a hauntingly ethereal note, but not as any kind of larger statement about the quartet's fate. The intention was to keep working together, but Andersson and Ulvaeus' growing involvement with their stage project, Chess, prevented any further work together by the group beyond three songs, "The Day Before You Came," "Cassandra," and "Under Attack" – they're all present as bonus tracks on the 2001 remastered edition (in gatefold packaging), along with the orphaned B-side "Should I Laugh or Cry" from the same sessions as The Visitors, and only add to the appeal of the original album.

by Bruce Eder, AMG
Tracklist:

01. The Visitors
02. Head Over Heels
03. When All Is Said And Done
04. Soldiers
05. I Let The Music Speak
06. One Of Us
07. Two For The Price Of One
08. Slipping Through My Fingers
09. Like An Angel Passing Through My Room

Bonus Tracks
10. Should I Laugh Or Cry
11. The Day Before You Came
12. Cassandra
13. Under Attack

Exact Audio Copy V0.99 prebeta 4 from 23. January 2008

Отчёт EAC об извлечении, выполненном 14. июля 2009, 19:09

ABBA / The Visitors

Дисковод: Optiarc DVD RW AD-7203A Adapter: 3 ID: 0

Режим чтения : Достоверность
Использование точного потока : Да
Отключение кэша аудио : Да
Использование указателей C2 : Нет

Коррекция смещения при чтении : 48
Способность читать области Lead-in и Lead-out : Нет
Заполнение пропущенных сэмплов тишиной : Да
Удаление блоков с тишиной в начале и конце : Нет
При вычислениях CRC использовались нулевые сэмплы : Да
Интерфейс : Установленный внешний ASPI-интерфейс

Выходной формат : Внутренние WAV-операции
Формат сэмплов : 44.100 Гц; 16 бит; стерео


TOC извлечённого CD

Трек | Старт | Длительность | Начальный сектор | Конечный сектор
––––––––––––––––––––––––––––––––––-
1 | 0:00.00 | 5:47.20 | 0 | 26044
2 | 5:47.20 | 3:48.00 | 26045 | 43144
3 | 9:35.20 | 3:19.65 | 43145 | 58134
4 | 12:55.10 | 4:40.55 | 58135 | 79189
5 | 17:35.65 | 5:23.42 | 79190 | 103456
6 | 22:59.32 | 3:57.40 | 103457 | 121271
7 | 26:56.72 | 3:38.68 | 121272 | 137689
8 | 30:35.65 | 3:53.35 | 137690 | 155199
9 | 34:29.25 | 3:40.62 | 155200 | 171761
10 | 38:10.12 | 4:29.28 | 171762 | 191964
11 | 42:39.40 | 5:53.02 | 191965 | 218441
12 | 48:32.42 | 4:56.58 | 218442 | 240699
13 | 53:29.25 | 3:48.52 | 240700 | 257851


Характеристики диапазона извлечения и сообщения об ошибках

Выбранный диапазон

Имя файла D:\Раздачи\ABBA SHM-CD\The Visitors 1981\ABBA - The Visitors.wav

Пиковый уровень 99.9 %
Качество диапазона 100.0 %
CRC копии D64B3F72
Копирование… OK

Ошибок не произошло


AccurateRip: сводка

Трек 1 точное извлечение (доверие 2) [C5482ACA]
Трек 2 точное извлечение (доверие 2) [1343D281]
Трек 3 точное извлечение (доверие 2) [12C552CB]
Трек 4 точное извлечение (доверие 2) [7FA6612F]
Трек 5 точное извлечение (доверие 2) [05E11701]
Трек 6 точное извлечение (доверие 2) [CE4F7AA8]
Трек 7 точное извлечение (доверие 2) [73CDDB4E]
Трек 8 точное извлечение (доверие 2) [A9588914]
Трек 9 точное извлечение (доверие 2) [6B304122]
Трек 10 точное извлечение (доверие 2) [C3A5D066]
Трек 11 точное извлечение (доверие 2) [03A10B97]
Трек 12 точное извлечение (доверие 2) [51ED93B7]
Трек 13 точное извлечение (доверие 2) [B5E09C00]

Все треки извлечены точно

Конец отчёта


[CUETools log; Date: 28.07.2016 12:59:05; Version: 2.1.4]
[CTDB TOCID: 9lP44BtbCSykT18IinU9AY.kLzA-] found.
Track | CTDB Status
1 | (14/36) Accurately ripped
2 | (14/36) Accurately ripped
3 | (14/36) Accurately ripped
4 | (14/36) Accurately ripped
5 | (14/36) Accurately ripped
6 | (14/36) Accurately ripped
7 | (14/36) Accurately ripped
8 | (14/36) Accurately ripped
9 | (14/36) Accurately ripped
10 | (14/36) Accurately ripped
11 | (14/36) Accurately ripped
12 | (14/36) Accurately ripped
13 | (13/36) Accurately ripped
[AccurateRip ID: 001b8a37-011229bd-b50d6e0d] found.
Track [ CRC | V2 ] Status
01 [c5482aca|6afc277f] (06+05/64) Accurately ripped
02 [1343d281|9efdce70] (05+05/63) Accurately ripped
03 [12c552cb|dd60f7de] (06+05/63) Accurately ripped
04 [7fa6612f|43526e5c] (06+05/65) Accurately ripped
05 [05e11701|ba16d627] (06+05/64) Accurately ripped
06 [ce4f7aa8|d204560c] (06+05/63) Accurately ripped
07 [73cddb4e|f013d3aa] (06+05/64) Accurately ripped
08 [a9588914|2d0cf450] (06+05/64) Accurately ripped
09 [6b304122|9a0ba1a7] (06+05/64) Accurately ripped
10 [c3a5d066|9e3446ab] (06+05/63) Accurately ripped
11 [03a10b97|4275533b] (06+05/63) Accurately ripped
12 [51ed93b7|c7274dc9] (06+05/63) Accurately ripped
13 [b5e09c00|4896654d] (06+05/62) Accurately ripped
Offsetted by -30:
01 [2985fd85] (02/64) Accurately ripped
02 [348444b9] (02/63) Accurately ripped
03 [31c8aed9] (02/63) Accurately ripped
04 [6d9a8b69] (02/65) Accurately ripped
05 [a6dfdfc7] (02/64) Accurately ripped
06 [69d31423] (02/63) Accurately ripped
07 [de549922] (02/64) Accurately ripped
08 [142e6141] (02/64) Accurately ripped
09 [2777c8c5] (02/64) Accurately ripped
10 [dfebc722] (02/63) Accurately ripped
11 [d8ae3762] (02/63) Accurately ripped
12 [0da33382] (02/63) Accurately ripped
13 [0bc1bd8c] (02/62) Accurately ripped
Offsetted by 6:
01 [2cff8da9] (02/64) Accurately ripped
02 [829eb873] (02/63) Accurately ripped
03 [6f78f56e] (02/63) Accurately ripped
04 [26bd12ec] (03/65) Accurately ripped
05 [62fafcd1] (03/64) Accurately ripped
06 [c0234341] (02/63) Accurately ripped
07 [bc1cd8f7] (03/64) Accurately ripped
08 [8409680f] (03/64) Accurately ripped
09 [8385ad54] (03/64) Accurately ripped
10 [3bbef4e7] (02/63) Accurately ripped
11 [2d0acf6c] (02/63) Accurately ripped
12 [535b328b] (02/63) Accurately ripped
13 [afb781a5] (02/62) Accurately ripped

Track Peak [ CRC32 ] [W/O NULL] [ LOG ]
– 99,9 [D64B3F72] [7F7FEEDC] CRC32
01 99,7 [E87C1002] [7A36AF8A]
02 98,5 [4E305667] [A70079CF]
03 97,0 [C0CC11BB] [F8D64ABF]
04 97,0 [B17B6F95] [5EF477EA]
05 95,1 [863CA41B] [8759DDA5]
06 98,5 [74B3A4C0] [C81C6FBF]
07 97,0 [353CE564] [437A04D8]
08 99,4 [BC677269] [1DFE235F]
09 99,9 [0AD9CBE1] [4841D910]
10 99,3 [C9EFD999] [FB0EE7D5]
11 95,1 [D24E5F5A] [D9F4CB3B]
12 96,6 [503A8083] [B7177716]
13 98,5 [19CF3468] [85B13FD2]


* * *

All thanks go to sinicinal

ABBA in my Blog

Download ABBA: Japanese SHM-CD Collection (1973-1981):