Tags
Language
Tags

Abdullah Ibrahim - Dollar Brand Plays Sphere Jazz (1960) {Phono}

Posted By: tiburon
Abdullah Ibrahim - Dollar Brand Plays Sphere Jazz (1960) {Phono}

Abdullah Ibrahim - Dollar Brand Plays Sphere Jazz (1960) {Phono}
EAC 1.1 | FLAC tracks level 8 | Cue+Log+M3U | Full Scans 300dpi | 358MB + 5% Recovery
MP3 CBR 320 Kbps | 189MB + 5% Recovery
Genre: Jazz, Bop
Abdullah Ibrahim - Dollar Brand Plays Sphere Jazz (1960) {Phono}

Adolph Johannes Brand was born in Cape Town, South Africa in 1934. He adopted the stage name Dollar Brand for his first few recordings, before changing his name to Abdullah Ibrahim on his conversion to Islam in 1968. The recording dates of both these sets are from that brief period between the burst of South African jazz and when Ibrahim and fellow musicians fled apartheid in 1962.
Track List
01 Boulevard East 6:51
02 Khumbula Jane 5:57
03 Sad Times, Bad Times/King Kong 5:27
04 Blues For B 3:30
05 Misterioso 4:44
06 Just You, Just Me 5:01
07 Eclipse At Dawn 4:05
Jazz Epistle. Verse 1 (Continental CON-T. 14) / The Jazz Epistles 43:23
08 Dollar's Mood 5:34
09 Blues For Hughie 6:00
10 Uku-Jonga Phambili (meaning "Looking Forward") 3:52
11 I Remember Billy 6:06
12 Vary-Oo-Vum 5:07
13 Carol's Drive 5:18
14 Gafsa 4:25
15 Scullery Department 7:01

musicians
Piano Abdullah Ibrahim
Bass Johnny Gertze
Drums Makaya Ntshoko
with, tracks 8-15:
Trumpet Hugh Masekela
Trombone, Vocals Jonas (Mosa) Gwangwa
Saxophone Kippie Moeketsi


Exact Audio Copy V1.1 from 23. June 2015

EAC extraction logfile from 16. May 2018, 10:26

Abdullah Ibrahim / Dollar Brand Plays Sphere Jazz

Used drive : MATSHITADVD+-RW SW830 Adapter: 1 ID: 0

Read mode : Secure
Utilize accurate stream : Yes
Defeat audio cache : Yes
Make use of C2 pointers : No

Read offset correction : 6
Overread into Lead-In and Lead-Out : No
Fill up missing offset samples with silence : Yes
Delete leading and trailing silent blocks : No
Null samples used in CRC calculations : Yes
Used interface : Native Win32 interface for Win NT & 2000
Gap handling : Appended to previous track

Used output format : User Defined Encoder
Selected bitrate : 896 kBit/s
Quality : High
Add ID3 tag : No
Command line compressor : C:\Program Files (x86)\Exact Audio Copy\Flac\flac.exe
Additional command line options : -8 -V -T "ARTIST=%artist%" -T "TITLE=%title%" -T "ALBUM=%albumtitle%" -T "DATE=%year%" -T "TRACKNUMBER=%tracknr%" -T "TOTALTRACKS=%numtracks%" -T "GENRE=%genre%" -T "ALBUMARTIST=%albumartist%" -T "ALBUM ARTIST=%albumartist%" -T "COMMENT=EAC Secure Mode, Test & Copy, AccurateRip, FLAC -8" %source%


TOC of the extracted CD

Track | Start | Length | Start sector | End sector
––––––––––––––––––––––––––––-
1 | 0:00.00 | 6:50.68 | 0 | 30817
2 | 6:50.68 | 5:57.17 | 30818 | 57609
3 | 12:48.10 | 5:26.53 | 57610 | 82112
4 | 18:14.63 | 3:29.60 | 82113 | 97847
5 | 21:44.48 | 4:43.73 | 97848 | 119145
6 | 26:28.46 | 5:01.22 | 119146 | 141742
7 | 31:29.68 | 4:04.60 | 141743 | 160102
8 | 35:34.53 | 5:34.08 | 160103 | 185160
9 | 41:08.61 | 6:00.17 | 185161 | 212177
10 | 47:09.03 | 3:52.03 | 212178 | 229580
11 | 51:01.06 | 6:05.60 | 229581 | 257015
12 | 57:06.66 | 5:07.35 | 257016 | 280075
13 | 62:14.26 | 5:18.10 | 280076 | 303935
14 | 67:32.36 | 4:24.57 | 303936 | 323792
15 | 71:57.18 | 7:01.08 | 323793 | 355375


Track 1

Filename G:\New Rips\Abdullah Ibrahim - Dollar Brand Plays Sphere Jazz (1960) [FLAC]\01 - Boulevard East.wav

Pre-gap length 0:00:02.00

Peak level 42.5 %
Extraction speed 2.2 X
Track quality 100.0 %
Test CRC 9D3061C6
Copy CRC 9D3061C6
Accurately ripped (confidence 2) [A7150827] (AR v2)
Copy OK

Track 2

Filename G:\New Rips\Abdullah Ibrahim - Dollar Brand Plays Sphere Jazz (1960) [FLAC]\02 - Khumbula Jane.wav

Pre-gap length 0:00:02.00

Peak level 97.7 %
Extraction speed 2.0 X
Track quality 99.9 %
Test CRC C677F410
Copy CRC C677F410
Accurately ripped (confidence 2) [E4497C49] (AR v2)
Copy OK

Track 3

Filename G:\New Rips\Abdullah Ibrahim - Dollar Brand Plays Sphere Jazz (1960) [FLAC]\03 - Sad Times Bad Times-King Kong.wav

Pre-gap length 0:00:02.00

Peak level 97.7 %
Extraction speed 2.7 X
Track quality 100.0 %
Test CRC 1B65D2D6
Copy CRC 1B65D2D6
Accurately ripped (confidence 2) [49C75E6F] (AR v2)
Copy OK

Track 4

Filename G:\New Rips\Abdullah Ibrahim - Dollar Brand Plays Sphere Jazz (1960) [FLAC]\04 - Blues For B.wav

Pre-gap length 0:00:02.00

Peak level 97.7 %
Extraction speed 2.0 X
Track quality 99.9 %
Test CRC C9706808
Copy CRC C9706808
Accurately ripped (confidence 2) [6BD4FF01] (AR v2)
Copy OK

Track 5

Filename G:\New Rips\Abdullah Ibrahim - Dollar Brand Plays Sphere Jazz (1960) [FLAC]\05 - Misterioso.wav

Pre-gap length 0:00:02.00

Peak level 97.7 %
Extraction speed 2.9 X
Track quality 100.0 %
Test CRC 20D0E3B8
Copy CRC 20D0E3B8
Accurately ripped (confidence 2) [D33E87E0] (AR v2)
Copy OK

Track 6

Filename G:\New Rips\Abdullah Ibrahim - Dollar Brand Plays Sphere Jazz (1960) [FLAC]\06 - Just You Just Me.wav

Pre-gap length 0:00:02.00

Peak level 97.7 %
Extraction speed 3.1 X
Track quality 100.0 %
Test CRC 52EB39A4
Copy CRC 52EB39A4
Accurately ripped (confidence 2) [C05D4557] (AR v2)
Copy OK

Track 7

Filename G:\New Rips\Abdullah Ibrahim - Dollar Brand Plays Sphere Jazz (1960) [FLAC]\07 - Eclipse At Dawn.wav

Pre-gap length 0:00:02.00

Peak level 97.7 %
Extraction speed 3.2 X
Track quality 100.0 %
Test CRC 8A5A38BE
Copy CRC 8A5A38BE
Accurately ripped (confidence 2) [AEE413B7] (AR v2)
Copy OK

Track 8

Filename G:\New Rips\Abdullah Ibrahim - Dollar Brand Plays Sphere Jazz (1960) [FLAC]\08 - Dollar's Moods.wav

Pre-gap length 0:00:02.00

Peak level 95.7 %
Extraction speed 3.4 X
Track quality 100.0 %
Test CRC 6C5B69AF
Copy CRC 6C5B69AF
Accurately ripped (confidence 2) [49C72CC5] (AR v2)
Copy OK

Track 9

Filename G:\New Rips\Abdullah Ibrahim - Dollar Brand Plays Sphere Jazz (1960) [FLAC]\09 - Blues For Hughie.wav

Pre-gap length 0:00:02.00

Peak level 72.9 %
Extraction speed 3.0 X
Track quality 99.9 %
Test CRC 85C10F3C
Copy CRC 85C10F3C
Accurately ripped (confidence 2) [4551CC63] (AR v2)
Copy OK

Track 10

Filename G:\New Rips\Abdullah Ibrahim - Dollar Brand Plays Sphere Jazz (1960) [FLAC]\10 - Uku-Jonga Phambili.wav

Pre-gap length 0:00:02.00

Peak level 71.7 %
Extraction speed 2.7 X
Track quality 99.9 %
Test CRC 4EE8B875
Copy CRC 4EE8B875
Accurately ripped (confidence 2) [131B04E1] (AR v2)
Copy OK

Track 11

Filename G:\New Rips\Abdullah Ibrahim - Dollar Brand Plays Sphere Jazz (1960) [FLAC]\11 - I Remember Billy.wav

Pre-gap length 0:00:02.00

Peak level 58.8 %
Extraction speed 3.8 X
Track quality 100.0 %
Test CRC 925D7760
Copy CRC 925D7760
Accurately ripped (confidence 2) [29F04C46] (AR v2)
Copy OK

Track 12

Filename G:\New Rips\Abdullah Ibrahim - Dollar Brand Plays Sphere Jazz (1960) [FLAC]\12 - Vary-Oo-Vum.wav

Pre-gap length 0:00:02.00

Peak level 73.1 %
Extraction speed 4.0 X
Track quality 100.0 %
Test CRC F52288D1
Copy CRC F52288D1
Accurately ripped (confidence 2) [4C89D972] (AR v2)
Copy OK

Track 13

Filename G:\New Rips\Abdullah Ibrahim - Dollar Brand Plays Sphere Jazz (1960) [FLAC]\13 - Carol's Drive.wav

Pre-gap length 0:00:02.00

Peak level 94.2 %
Extraction speed 4.1 X
Track quality 100.0 %
Test CRC 6B7DFD8F
Copy CRC 6B7DFD8F
Accurately ripped (confidence 2) [5116095E] (AR v2)
Copy OK

Track 14

Filename G:\New Rips\Abdullah Ibrahim - Dollar Brand Plays Sphere Jazz (1960) [FLAC]\14 - Gafsa.wav

Pre-gap length 0:00:02.00

Peak level 60.7 %
Extraction speed 4.2 X
Track quality 100.0 %
Test CRC 8463017E
Copy CRC 8463017E
Accurately ripped (confidence 2) [B9D551E5] (AR v2)
Copy OK

Track 15

Filename G:\New Rips\Abdullah Ibrahim - Dollar Brand Plays Sphere Jazz (1960) [FLAC]\15 - Scullery Department.wav

Pre-gap length 0:00:02.00

Peak level 81.4 %
Extraction speed 4.5 X
Track quality 100.0 %
Test CRC AFEAF6A9
Copy CRC AFEAF6A9
Accurately ripped (confidence 2) [C03B2072] (AR v2)
Copy OK


All tracks accurately ripped

No errors occurred

End of status report

–– CUETools DB Plugin V2.1.6

[CTDB TOCID: 2q6sDaKexLHd6UgZVZCCuAlhWx8-] found
Submit result: 2q6sDaKexLHd6UgZVZCCuAlhWx8- has been uploaded
Track | CTDB Status
1 | (1/1) Accurately ripped
2 | (1/1) Accurately ripped
3 | (1/1) Accurately ripped
4 | (1/1) Accurately ripped
5 | (1/1) Accurately ripped
6 | (1/1) Accurately ripped
7 | (1/1) Accurately ripped
8 | (1/1) Accurately ripped
9 | (1/1) Differs in 50 samples @05:16:09
10 | (1/1) Accurately ripped
11 | (1/1) Accurately ripped
12 | (1/1) Accurately ripped
13 | (1/1) Accurately ripped
14 | (1/1) Accurately ripped
15 | (1/1) Accurately ripped
If you are sure that your rip contains errors, you can use CUETools to repair it.


==== Log checksum 3061C077B03A3B513D043D46ADAC5E294BA8AEFF431325BAA85BC9F2B49D3E03 ====


foobar2000 1.3.13 / Dynamic Range Meter 1.1.1
log date: 2019-01-28 15:10:33

––––––––––––––––––––––––––––––––––––––––
Analyzed: Abdullah Ibrahim / Dollar Brand Plays Sphere Jazz
––––––––––––––––––––––––––––––––––––––––

DR Peak RMS Duration Track
––––––––––––––––––––––––––––––––––––––––
DR15 -7.41 dB -26.17 dB 6:51 01-Boulevard East
DR17 -0.20 dB -21.38 dB 5:57 02-Khumbula Jane
DR15 -0.20 dB -18.68 dB 5:27 03-Sad Times, Bad Times/King Kong
DR16 -0.20 dB -19.84 dB 3:30 04-Blues For B
DR16 -0.20 dB -20.47 dB 4:44 05-Misterioso
DR15 -0.20 dB -17.81 dB 5:01 06-Just You, Just Me
DR13 -0.20 dB -16.48 dB 4:05 07-Eclipse At Dawn
DR15 -0.38 dB -18.76 dB 5:34 08-Dollar's Moods
DR16 -2.74 dB -21.77 dB 6:00 09-Blues For Hughie
DR13 -2.88 dB -18.30 dB 3:52 10-Uku-Jonga Phambili (meaning "Looking Forward")
DR16 -4.61 dB -24.40 dB 6:06 11-I Remember Billy
DR14 -2.72 dB -20.10 dB 5:07 12-Vary-Oo-Vum
DR17 -0.52 dB -19.69 dB 5:18 13-Carol's Drive
DR16 -4.33 dB -25.35 dB 4:25 14-Gafsa
DR14 -1.78 dB -19.09 dB 7:01 15-Scullery Department
––––––––––––––––––––––––––––––––––––––––

Number of tracks: 15
Official DR value: DR15

Samplerate: 44100 Hz
Channels: 2
Bits per sample: 16
Bitrate: 645 kbps
Codec: FLAC
================================================================================

Abdullah Ibrahim - Dollar Brand Plays Sphere Jazz (1960) {Phono}
Abdullah Ibrahim - Dollar Brand Plays Sphere Jazz (1960) {Phono}