Tags
Language
Tags
April 2024
Su Mo Tu We Th Fr Sa
31 1 2 3 4 5 6
7 8 9 10 11 12 13
14 15 16 17 18 19 20
21 22 23 24 25 26 27
28 29 30 1 2 3 4

Abdullah Ibrahim (Dollar Brand) - The Pilgrim [Recorded 1973-1979] (1986) (Repost)

Posted By: gribovar
Abdullah Ibrahim (Dollar Brand) - The Pilgrim [Recorded 1973-1979] (1986) (Repost)

Abdullah Ibrahim (Dollar Brand) - The Pilgrim [Recorded 1973-1979] (1986)
EAC Rip | FLAC (image+.cue+log) - 269 MB | Covers included
Genre: Jazz | RAR 3% Rec. | Label: Enja (CD 2048-06)

Recorded at Tonstudio Bauer, Ludwigsburg, on 10.12.1973, except (4), (5) which were recorded on 7.9.1979.
South African pianist Abdullah Ibrahim's effervescent sound is immediately recognizable. It is steeped in the folk traditions of his homeland - from township folk and A.M.E. gospel to Indian raga - and is wed to the elegant compositional flair of Duke Ellington, Thelonious Monk's canny notions of harmony and rhythm, improvisation, and classical technical proficiency. He is the most distinguished - and prolific - jazzman in South Africa's history.
Tracklist:
01. The Pilgrim
02. Ntsikana's Bell
03. Msunduza
04. Namehanje
05. Saud
06. Moniebah / The Pilgrim

Total time: 55:12

Exact Audio Copy V0.99 prebeta 4 from 23. January 2008

EAC extraction logfile from 16. July 2009, 16:24

Abdullah Ibrahim (Dollar Brand) / The Pilgrim

Used drive : _NEC DVD_RW ND-3500AG Adapter: 0 ID: 0

Read mode : Secure
Utilize accurate stream : Yes
Defeat audio cache : Yes
Make use of C2 pointers : No

Read offset correction : 48
Overread into Lead-In and Lead-Out : No
Fill up missing offset samples with silence : Yes
Delete leading and trailing silent blocks : No
Null samples used in CRC calculations : Yes
Used interface : Native Win32 interface for Win NT & 2000

Used output format : User Defined Encoder
Selected bitrate : 768 kBit/s
Quality : High
Add ID3 tag : No
Command line compressor : C:\Program Files\Exact Audio Copy\FLAC\FLAC.EXE
Additional command line options : -6 -V -T "ARTIST=%a" -T "TITLE=%t" -T "ALBUM=%g" -T "DATE=%y" -T "TRACKNUMBER=%n" -T "GENRE=%m" -T "COMMENT=%e" %s -o %d


TOC of the extracted CD

Track | Start | Length | Start sector | End sector
––––––––––––––––––––––––––––-
1 | 0:00.00 | 9:45.00 | 0 | 43874
2 | 9:45.00 | 6:06.00 | 43875 | 71324
3 | 15:51.00 | 4:39.00 | 71325 | 92249
4 | 20:30.00 | 16:51.50 | 92250 | 168124
5 | 37:21.50 | 5:56.25 | 168125 | 194849
6 | 43:18.00 | 11:54.37 | 194850 | 248436


Range status and errors

Selected range

Filename J:\eMusic\Rip\Abdullah Ibrahim (Dollar Brand) - The Pilgrim.wav

Peak level 88.7 %
Range quality 99.9 %
Test CRC E43A8F6D
Copy CRC E43A8F6D
Copy OK

No errors occurred


AccurateRip summary

Track 1 not present in database
Track 2 not present in database
Track 3 not present in database
Track 4 not present in database
Track 5 not present in database
Track 6 not present in database

None of the tracks are present in the AccurateRip database

End of status report

[CUETools log; Date: 27.09.2019 16:26:31; Version: 2.1.4]
[CTDB TOCID: FTSW1xEP0r382fFPQVjKeyg6Uns-] found.
Track | CTDB Status
1 | (14/14) Accurately ripped
2 | (13/14) Accurately ripped
3 | (14/14) Accurately ripped
4 | (14/14) Accurately ripped
5 | (13/14) Accurately ripped
6 | (13/14) Accurately ripped
[AccurateRip ID: 000c7eae-00436fb6-420cf006] found.
Track [ CRC | V2 ] Status
01 [0d59f898|400d6a0a] (0+6/6) Accurately ripped
02 [4a682056|77416107] (0+6/6) Accurately ripped
03 [3228744e|26a8872d] (0+6/6) Accurately ripped
04 [e9cbc79e|19ee9a41] (0+6/6) Accurately ripped
05 [aa318954|abe901ca] (0+6/6) Accurately ripped
06 [d31cdff6|833c200f] (0+6/6) Accurately ripped

Track Peak [ CRC32 ] [W/O NULL] [ LOG ]
– 88,7 [E43A8F6D] [2ED2CDF0] CRC32
01 81,2 [F8ADD8D2] [381B5CBD]
02 66,1 [0801301C] [351BE3BF]
03 64,8 [9F76A246] [85CF4965]
04 88,7 [D15143DD] [6DAEADF4]
05 67,1 [397A09FD] [B6074B9C]
06 84,4 [2518F07C] [2DF0E436]

Thanks to intothe