Accept - Eat The Heat (1989) [Japan 2005, DSD Mastering]

Posted By: Andi_Deris
Accept - Eat The Heat (1989) [Japan 2005, DSD Mastering]

Accept - Eat The Heat (1989) [Japan 2005, DSD Mastering]
EAC Rip | FLAC: Image+Cue+Log | 462 Mb | MP3 CBR 320 kbps | 152 Mb | Scans | 26 Mb | Time: 01:01:27
EPIC/Sony Music Direct (Japan) Inc. | MHCP 790
Heavy Metal

EAT THE HEAT is the eighth studio album by German heavy metal band Accept, released in 1989. It was recorded at Dierks-Studios, in Cologne, from September 1988 to January 1989. Although Jim Stacey is presented as rhythm guitar player in the album line-up, the album credits also state that all guitar work on the album was played by Wolf Hoffmann. Jim Stacey did perform second guitar live with the band.

Accept - Eat The Heat (1989) [Japan 2005, DSD Mastering]




Accept - Eat The Heat (1989) [Japan 2005, DSD Mastering]


Track Listing

01. X-T-C (04:28)
02. Generation Clash (06:25)
03. Chain Reaction (04:40)
04. Love Sensation (04:44)
05. Turn The Wheel (04:59)
06. Hellhammer (05:30)
07. Prisoner (04:15)
08. I Can't Believe In You (04:48)
09. Mistreated (08:51)
10. Stand 4 What U R (04:06)
11. Break The Ice (04:12)
12. D-Train (04:27)

Produced by Dieter Dierks

The Band

• David Reece - vocals
• Wolf Hoffmann - all guitar
• Peter Baltes - bass
• Stefan Kaufmann - drums

Notes

Originally released in 1989. Budget reissue to coincide with Accept's 2005 Japanese tour (来日記念盤).
Issued in a standard jewel case with an obi. Includes a 32-page booklet with English/Japanese track list, Japanese commentaries, note to Japan fans by Wolf, note translated to Japanese (訳 : 中村美夏), English commentary, English commentary translated into Japanese (訳 : 中村美夏), English lyrics, lyrics translated into Japanese (訳 : Marie Nishimori), and English credits.
The Japanese commentaries are credited as:
伊藤政則/ Masa Itoh
2005年5月25日 奥野高久/BURNN!

Indicated as 2005 digital remaster on the obi by: '05年デジタル・リマスター

From the back cover:
℗© 1989 Sony Music Entertainment Inc./Manufactured by Sony Music Direct (Japan) Inc.


Exact Audio Copy V1.0 beta 3 from 29. August 2011

EAC extraction logfile from 5. November 2013, 9:12

Accept / Eat The Heat

Used drive : SlimtypeDVD A DS8A5SH Adapter: 0 ID: 1

Read mode : Secure
Utilize accurate stream : Yes
Defeat audio cache : Yes
Make use of C2 pointers : No

Read offset correction : 6
Overread into Lead-In and Lead-Out : No
Fill up missing offset samples with silence : Yes
Delete leading and trailing silent blocks : No
Null samples used in CRC calculations : Yes
Used interface : Native Win32 interface for Win NT & 2000

Used output format : User Defined Encoder
Selected bitrate : 320 kBit/s
Quality : High
Add ID3 tag : No
Command line compressor : C:\Program Files (x86)\Exact Audio Copy\Flac\flac.exe
Additional command line options : -V -8 -T "Date=%year%" -T "Genre=%genre%" %source%


TOC of the extracted CD

Track | Start | Length | Start sector | End sector
––––––––––––––––––––––––––––-
1 | 0:00.00 | 4:27.68 | 0 | 20092
2 | 4:27.68 | 6:25.32 | 20093 | 48999
3 | 10:53.25 | 4:40.23 | 49000 | 70022
4 | 15:33.48 | 4:44.32 | 70023 | 91354
5 | 20:18.05 | 4:59.18 | 91355 | 113797
6 | 25:17.23 | 5:29.60 | 113798 | 138532
7 | 30:47.08 | 4:15.27 | 138533 | 157684
8 | 35:02.35 | 4:47.48 | 157685 | 179257
9 | 39:50.08 | 8:51.32 | 179258 | 219114
10 | 48:41.40 | 4:06.13 | 219115 | 237577
11 | 52:47.53 | 4:11.52 | 237578 | 256454
12 | 56:59.30 | 4:27.08 | 256455 | 276487


Range status and errors

Selected range

Filename D:\My Music\Accept - 1989 Eat The Heat (2005 Remastered)\Accept - Eat The Heat.wav

Peak level 99.3 %
Extraction speed 4.9 X
Range quality 99.9 %
Test CRC C95FBED2
Copy CRC C95FBED2
Copy OK

No errors occurred


AccurateRip summary

Track 1 accurately ripped (confidence 1) [3DBFCD72] (AR v2)
Track 2 accurately ripped (confidence 1) [CCF32DC3] (AR v2)
Track 3 accurately ripped (confidence 1) [195C9938] (AR v2)
Track 4 accurately ripped (confidence 1) [4D4BFC79] (AR v2)
Track 5 accurately ripped (confidence 1) [E1B22CFE] (AR v2)
Track 6 accurately ripped (confidence 1) [08E456F2] (AR v2)
Track 7 accurately ripped (confidence 1) [20BC329A] (AR v2)
Track 8 accurately ripped (confidence 1) [13EE6D1F] (AR v2)
Track 9 accurately ripped (confidence 1) [94B74F50] (AR v2)
Track 10 accurately ripped (confidence 1) [E3E67585] (AR v2)
Track 11 accurately ripped (confidence 1) [4DA7BB01] (AR v2)
Track 12 accurately ripped (confidence 1) [11AB8865] (AR v2)

All tracks accurately ripped

End of status report

==== Log checksum B58ABB77ED8C4C0171336ACEF9129F413AC3F9383F7F3238122FAF1C0EC4E9B7 ====


Many thanks to the original uploader: kolushew


Accept 1979 Accept [Remastered 2005]
Accept 1980 I'm A Rebel [Remastered 2005]
Accept 1981 Breaker [Remastered 2005]
Accept 1982 Restless And Wild [Remastered 2005]
Accept 1983 Balls To The Wall [Japan 1st Press, 1989]
Accept 1983 Balls To The Wall [Remastered 2002]
Accept 1983 Balls To The Wall [Japan 2005, DSD Mastering]
Accept 1985 Metal Heart [Japan 1st Press]
Accept 1985 Metal Heart [Remastered 2002]
Accept 1985 Metal Heart [Japan 2005, DSD Mastering]
Accept 1986 Russian Roulette [Japan 1st Press]
Accept 1986 Russian Roulette [Remastered 2002]
Accept 1986 Russian Roulette [Japan 2005, DSD Mastering]
Accept 1986 A Compilation Of The Best Of Balls To The Wall / Restless & Wild
Accept 1989 Eat The Heat [Japan 1st Press]
Accept 1989 Eat The Heat [Remastered 2002]
Accept 1990 Staying A Life (Japanese Ed. 2005, Remastered] 2CD
Accept 1993 Objection Overruled [Original 1st Press]
Accept 1993 Objection Overruled [Remastered 2015]
Accept 1994 Death Row
Accept 1996 Predator
Accept 1997 All Areas - Worldwide [Japan 1st Press]
Accept 1997 All Areas - Worldwide [2CD]
Accept 1998 The Final Chapter [2CD]
Accept 2002 Metal Blast From The Past [DVD]
Accept 2010 Blood Of The Nations [Japan SHM-CD]
Accept 2010 The Accept Collection [3 CDs, Box Set]
Accept 2014 Blind Rage [Limited Ed., CD+DVD]

Cannon 2012 Burning Love

Crystal Ball 1999 In The Beginning [Japanese Ed.]
Crystal Ball 2015 LifeRider [Limited Ed. Digipak]
Crystal Ball 2016 Deja-Voodoo
Crystal Ball 2016 Deja-Voodoo [Limited Ed. Digipak]

Don Dokken 1990 Up From The Ashes [Japan Ltd. Ed. 1991]

Empire 2006 The Raven Ride [Japanese Ed.]

Herman Frank 2012 Right In The Guts
Herman Frank 2016 The Devil Rides Out [Japanese Ed.]

Mob Rules 2014 Timekeeper - 20th Anniversary Box [3CD + DVD]

Moon'Doc 1995 Moon'Doc [Japanese Ed.]
Moon'Doc 1996 Get Mooned [Japanese Ed.]
Moon'Doc 2000 Realm Of Legends

PowerWorld 2008 Powerworld [Japanese Ed.]
PowerWorld 2010 Human Parasite
PowerWorld 2013 Cybersteria

U.D.O. 2007 Metallized
U.D.O. 2012 Live In Sofia [DVD + 2CD]
U.D.O. 2013 Steelhammer [Limited Ed.]
U.D.O. 2013 Steelhammer [Japanese Ed.]
U.D.O. 2015 Decadent [Limited Ed.]