Subcategories

Ace - Best of Ace featuring Paul Carrack (1987)

Posted By: Designol
Ace - Best of Ace featuring Paul Carrack (1987)

Ace - Best of Ace featuring Paul Carrack (1987)
EAC | FLAC | Image (Cue&Log) ~ 339 Mb | Mp3 (CBR320) ~ 131 Mb | Scans included
Classic Rock, Pub Rock, Soft Rock | Label: See For Miles | # SEECD 214 | 00:54:36

Best of Ace is a smartly assembled, fourteen-track collection which draws from each of the band's albums. Ace is best remembered for the ultra-slick "How Long," but little of the collection bears resemblance to that hit. Instead, they're shown doing what they did best (and more often) – playing laidback, rootsy pub-rock.

Review by Chris Woodstra, Allmusic.com

Ace - Best of Ace featuring Paul Carrack (1987)



Tracklist:

01. How Long (3:26)
02. I'm a Man (3:56)
03. Ain't Gonna Stand for This No More (4:08)
04. Rock 'N' Roll Runaway (3:07)
05. The Real Feeling (2:24)
06. Rock and Roll Singer (5:00)
07. You're All That I Need (3:45)
08. 24 Hours (4:03)
09. Crazy World (3:31)
10. No Future in Your Eyes (3:26)
11. Tongue Tied (4:40)
12. Time Ain't Long (3:55)
13. Sail on My Brother (4:34)
14. I Think It's Gonna Last (4:40)


Exact Audio Copy V0.99 prebeta 5 from 4. May 2009

EAC extraction logfile from 6. November 2010, 0:39

Ace / Best of Ace [See for Miles]

Used drive : ATAPI DVD D DH16DYS Adapter: 2 ID: 0

Read mode : Secure
Utilize accurate stream : Yes
Defeat audio cache : Yes
Make use of C2 pointers : No

Read offset correction : 6
Overread into Lead-In and Lead-Out : No
Fill up missing offset samples with silence : Yes
Delete leading and trailing silent blocks : No
Null samples used in CRC calculations : Yes
Used interface : Native Win32 interface for Win NT & 2000

Used output format : Internal WAV Routines
Sample format : 44.100 Hz; 16 Bit; Stereo


TOC of the extracted CD

Track | Start | Length | Start sector | End sector
––––––––––––––––––––––––––––-
1 | 0:00.72 | 3:25.45 | 72 | 15491
2 | 3:26.42 | 3:56.05 | 15492 | 33196
3 | 7:22.47 | 4:07.60 | 33197 | 51781
4 | 11:30.32 | 3:07.15 | 51782 | 65821
5 | 14:37.47 | 2:23.63 | 65822 | 76609
6 | 17:01.35 | 5:00.37 | 76610 | 99146
7 | 22:01.72 | 3:45.15 | 99147 | 116036
8 | 25:47.12 | 4:03.35 | 116037 | 134296
9 | 29:50.47 | 3:31.13 | 134297 | 150134
10 | 33:21.60 | 3:26.27 | 150135 | 165611
11 | 36:48.12 | 4:39.73 | 165612 | 186609
12 | 41:28.10 | 3:54.50 | 186610 | 204209
13 | 45:22.60 | 4:33.50 | 204210 | 224734
14 | 49:56.35 | 4:40.37 | 224735 | 245771


Range status and errors

Selected range

Filename C:\Ace - Best of Ace - HQS\Ace - Best of Ace [See for Miles].wav

Peak level 100.0 %
Range quality 100.0 %
Test CRC C12AAC84
Copy CRC C12AAC84
Copy OK

No errors occurred


AccurateRip summary

Track 1 cannot be verified as accurate (confidence 6) [271C1927], AccurateRip returned [876EE287]
Track 2 cannot be verified as accurate (confidence 6) [ECA3FDF7], AccurateRip returned [3217CE8E]
Track 3 cannot be verified as accurate (confidence 6) [B7D42EE9], AccurateRip returned [E2328399]
Track 4 cannot be verified as accurate (confidence 6) [0AACD439], AccurateRip returned [3433C671]
Track 5 cannot be verified as accurate (confidence 6) [3550BFFC], AccurateRip returned [8BD09EE4]
Track 6 cannot be verified as accurate (confidence 6) [9CDAEA89], AccurateRip returned [1198CB71]
Track 7 cannot be verified as accurate (confidence 6) [76FDF901], AccurateRip returned [84DA5CD5]
Track 8 cannot be verified as accurate (confidence 6) [1E7C0930], AccurateRip returned [5C4FB86C]
Track 9 cannot be verified as accurate (confidence 6) [EF8DAE80], AccurateRip returned [8F875DC0]
Track 10 cannot be verified as accurate (confidence 6) [AF6217CD], AccurateRip returned [485891A5]
Track 11 cannot be verified as accurate (confidence 6) [775A652A], AccurateRip returned [036BB00A]
Track 12 cannot be verified as accurate (confidence 6) [C84B13CA], AccurateRip returned [19A2F632]
Track 13 cannot be verified as accurate (confidence 6) [8E47D08B], AccurateRip returned [800978E3]
Track 14 cannot be verified as accurate (confidence 6) [86A543E8], AccurateRip returned [D6869388]

No tracks could be verified as accurate
You may have a different pressing from the one(s) in the database

End of status report

[CUETools log; Date: 05.06.2018 16:52:46; Version: 2.1.4]
Pregap length 00:00:72.
[CTDB TOCID: HWuoBeth_gpJahunjMUa8EhXtJI-] found.
Track | CTDB Status
1 | (6/6) Accurately ripped
2 | (1/6) Accurately ripped, or (5/6) differs in 18 samples @00:26:62-00:26:63
3 | (6/6) Accurately ripped
4 | (6/6) Accurately ripped
5 | (6/6) Accurately ripped
6 | (6/6) Accurately ripped
7 | (6/6) Accurately ripped
8 | (6/6) Accurately ripped
9 | (6/6) Accurately ripped
10 | (6/6) Accurately ripped
11 | (6/6) Accurately ripped
12 | (6/6) Accurately ripped
13 | (6/6) Accurately ripped
14 | (6/6) Accurately ripped
[AccurateRip ID: 001b003a-01220839-ba0ccc0e] found.
Track [ CRC | V2 ] Status
01 [271c1927|87fc1ab7] (00+00/11) No match
02 [eca3fdf7|791abc08] (00+00/11) No match
03 [b7d42ee9|91d539f8] (00+00/11) No match
04 [0aacd439|2e466513] (00+00/11) No match
05 [3550bffc|4b768f15] (00+00/12) No match
06 [9cdaea89|98e2bc1a] (00+00/11) No match
07 [76fdf901|fad2d7e4] (00+00/12) No match
08 [1e7c0930|b7188102] (00+00/11) No match
09 [ef8dae80|aa810d5d] (00+00/11) No match
10 [af6217cd|3b5effe9] (00+00/11) No match
11 [775a652a|e60e9317] (00+00/11) No match
12 [c84b13ca|68281786] (00+00/11) No match
13 [8e47d08b|40c02b3f] (00+00/11) No match
14 [86a543e8|06910118] (00+00/11) No match
Offsetted by -232:
01 [876ee287] (07/11) Accurately ripped
02 [ca6759f7] (00/11) No match (V2 was not tested)
03 [e2328399] (07/11) Accurately ripped
04 [3433c671] (07/11) Accurately ripped
05 [8bd09ee4] (08/12) Accurately ripped
06 [1198cb71] (07/11) Accurately ripped
07 [84da5cd5] (08/12) Accurately ripped
08 [5c4fb86c] (07/11) Accurately ripped
09 [8f875dc0] (07/11) Accurately ripped
10 [485891a5] (07/11) Accurately ripped
11 [036bb00a] (07/11) Accurately ripped
12 [19a2f632] (07/11) Accurately ripped
13 [800978e3] (07/11) Accurately ripped
14 [d6869388] (07/11) Accurately ripped

Track Peak [ CRC32 ] [W/O NULL] [ LOG ]
– 100,0 [C12AAC84] [23D283E1] CRC32
01 95,1 [EE3E7110] [F5FA625B]
02 79,3 [0D6E80CB] [FE4FB6B4]
03 91,0 [3372F6C8] [E6480488]
04 100,0 [19084FE4] [717E4CD0]
05 100,0 [BA7AC2DF] [6AC45F0E]
06 100,0 [8B8E20D3] [9F07A057]
07 92,0 [5F32592E] [C5B3B9A0]
08 98,5 [9F45132E] [EAE1AD96]
09 95,9 [F7AC2238] [49674288]
10 87,7 [87C054DF] [A410A902]
11 99,8 [D71342C9] [72617E77]
12 100,0 [63B32CFA] [8F6C01C7]
13 92,0 [C8F27433] [77C3DAF2]
14 99,9 [CB4DA548] [06F2B700]

foobar2000 1.2 / Dynamic Range Meter 1.1.1
log date: 2018-06-05 16:58:23

––––––––––––––––––––––––––––––––––––––––
Analyzed: Ace / Best of Ace [See for Miles]
––––––––––––––––––––––––––––––––––––––––

DR Peak RMS Duration Track
––––––––––––––––––––––––––––––––––––––––
DR13 -0.43 dB -15.94 dB 3:26 01-How Long
DR11 -2.01 dB -14.83 dB 3:56 02-I'm a Man
DR11 -0.82 dB -13.17 dB 4:08 03-Ain't Gonna Stand for This No More
DR13 0.00 dB -14.80 dB 3:07 04-Rock 'N' Roll Runaway
DR13 0.00 dB -15.20 dB 2:24 05-The Real Feeling
DR14 0.00 dB -17.04 dB 5:00 06-Rock and Roll Singer
DR13 -0.72 dB -15.64 dB 3:45 07-You're All That I Need
DR14 -0.13 dB -15.84 dB 4:03 08-24 Hours
DR14 -0.36 dB -17.63 dB 3:31 09-Crazy World
DR11 -1.13 dB -14.39 dB 3:26 10-No Future in Your Eyes
DR11 -0.01 dB -13.73 dB 4:40 11-Tongue Tied
DR13 0.00 dB -14.72 dB 3:55 12-Time Ain't Long
DR11 -0.72 dB -13.32 dB 4:34 13-Sail on My Brother
DR11 -0.01 dB -13.44 dB 4:40 14-I Think It's Gonna Last
––––––––––––––––––––––––––––––––––––––––

Number of tracks: 14
Official DR value: DR12

Samplerate: 44100 Hz
Channels: 2
Bits per sample: 16
Bitrate: 853 kbps
Codec: FLAC
================================================================================

Ace - Best of Ace featuring Paul Carrack (1987)

Ace - Best of Ace featuring Paul Carrack (1987)

All thanks to original releaser - rrock

More interesting music in My Blog