Subcategories
Please register here if you want to download anything!

If domain in your address bar is different from the list below
PLEASE LEAVE THAT SITE IMMEDIATELY
❗IT'S A DANGEROUS FAKE❗



Spicy Magazines for Men! ;-)

Acoustic Alchemy - The New Edge (1993) {GRP 97112}

Posted By: tiburon
Acoustic Alchemy - The New Edge (1993) {GRP 97112}

Acoustic Alchemy - The New Edge (1993) {GRP 97112}
EAC 0.95b3 | FLAC tracks level 8 | Cue+Log+M3U | Full Scans 300dpi | 283MB + 5% Recovery
MP3 CBR 320 Kbps | 124MB + 5% Recovery
Genre: Smooth Jazz, Fusion

Cynics might roll their eyes at the album's title – there is nothing at all edgy about this duo's buffed-to-a-high-gloss music – but The New Edge is actually one of Acoustic Alchemy's most entertaining releases. There's a playfulness to these tunes, like the puckish electronic drums on the flamenco-tinged and downright catchy "Notting Hill Two-Step" and the tongue-in-cheek boulevardier pretensions of the closing "Rive Gauche," that suggests a pair of sharp wits behind the well-packaged sheen of this music. The songs are a consistently memorable lot this time out, with a much higher than usual ratio of interesting melodies to snoozy new age mush, and the production, for once, is not so Velveeta-smooth that the record actually becomes hard to listen to. Indeed, songs like the genuinely lovely "Arc-En-Ciel" and "London Skyline" are among the duo's best ever. If you're only going to get one Acoustic Alchemy album, this is the one to get.
Track List
1. Oceans Apart
2. The Notting Hill Two-Step
3. Slow Ride Home
4. Cool As A Rule
5. Santa Cafe
6. Arc En Ciel
7. London Skyline
8. The Liaison
9. Until Always
10. Rive Gauche
11. Act Of Innocence


EAC extraction logfile from 17. September 2007, 15:27 for CD
Acoustic Alchemy / The New Edge

Used drive : PLEXTOR DVDR PX-716A Adapter: 1 ID: 0
Read mode : Secure with NO C2, accurate stream, disable cache
Read offset correction : 30
Overread into Lead-In and Lead-Out : No

Used output format : Internal WAV Routines
44.100 Hz; 16 Bit; Stereo

Other options :
Fill up missing offset samples with silence : Yes
Delete leading and trailing silent blocks : No
Installed external ASPI interface


Track 1
Filename F:\[MyRip]\01 - Oceans Apart.wav

Pre-gap length 0:00:02.33

Peak level 94.2 %
Track quality 99.9 %
Test CRC 4D0FAA1B
Copy CRC 4D0FAA1B
Copy OK

Track 2
Filename F:\[MyRip]\02 - The Notting Hill Two-Step.wav

Pre-gap length 0:00:02.35

Peak level 94.7 %
Track quality 100.0 %
Test CRC 8B0B5446
Copy CRC 8B0B5446
Copy OK

Track 3
Filename F:\[MyRip]\03 - Slow Ride Home.wav

Pre-gap length 0:00:02.43

Peak level 94.4 %
Track quality 100.0 %
Test CRC 5B720D1C
Copy CRC 5B720D1C
Copy OK

Track 4
Filename F:\[MyRip]\04 - Cool As A Rule.wav

Pre-gap length 0:00:03.07

Peak level 94.9 %
Track quality 100.0 %
Test CRC 72194BB3
Copy CRC 72194BB3
Copy OK

Track 5
Filename F:\[MyRip]\05 - Santa Cafe.wav

Pre-gap length 0:00:02.08

Peak level 94.3 %
Track quality 100.0 %
Test CRC CE8299A1
Copy CRC CE8299A1
Copy OK

Track 6
Filename F:\[MyRip]\06 - Arc En Ciel.wav

Pre-gap length 0:00:01.67

Peak level 94.4 %
Track quality 100.0 %
Test CRC 795DAA50
Copy CRC 795DAA50
Copy OK

Track 7
Filename F:\[MyRip]\07 - London Skyline.wav

Pre-gap length 0:00:02.37

Peak level 94.7 %
Track quality 100.0 %
Test CRC E59514E3
Copy CRC E59514E3
Copy OK

Track 8
Filename F:\[MyRip]\08 - The Liaison.wav

Pre-gap length 0:00:02.55

Peak level 95.0 %
Track quality 99.9 %
Test CRC 500949E9
Copy CRC 500949E9
Copy OK

Track 9
Filename F:\[MyRip]\09 - Until Always.wav

Pre-gap length 0:00:02.63

Peak level 94.7 %
Track quality 100.0 %
Test CRC 603A5086
Copy CRC 603A5086
Copy OK

Track 10
Filename F:\[MyRip]\10 - Rive Gauche.wav

Pre-gap length 0:00:02.30

Peak level 94.8 %
Track quality 100.0 %
Test CRC DF8E5FA5
Copy CRC DF8E5FA5
Copy OK

Track 11
Filename F:\[MyRip]\11 - Act Of Innocence.wav

Pre-gap length 0:00:03.62

Peak level 94.4 %
Track quality 100.0 %
Test CRC E6CC983D
Copy CRC E6CC983D
Copy OK

No errors occured


End of status report

––––––––––––––––––––––––––––––

EAC extraction logfile from 17. September 2007, 15:27 for CD
Acoustic Alchemy / The New Edge

Used drive : PLEXTOR DVDR PX-716A Adapter: 1 ID: 0
Read mode : Secure with NO C2, accurate stream, disable cache
Read offset correction : 30
Overread into Lead-In and Lead-Out : No

Used output format : Internal WAV Routines
44.100 Hz; 16 Bit; Stereo

Other options :
Fill up missing offset samples with silence : Yes
Delete leading and trailing silent blocks : No
Installed external ASPI interface


Track 1
Filename F:\[MyRip]\01 - Oceans Apart.wav

Pre-gap length 0:00:02.33

Peak level 94.2 %
Track quality 99.9 %
Test CRC 4D0FAA1B
Copy CRC 4D0FAA1B
Copy OK

Track 2
Filename F:\[MyRip]\02 - The Notting Hill Two-Step.wav

Pre-gap length 0:00:02.35

Peak level 94.7 %
Track quality 100.0 %
Test CRC 8B0B5446
Copy CRC 8B0B5446
Copy OK

Track 3
Filename F:\[MyRip]\03 - Slow Ride Home.wav

Pre-gap length 0:00:02.43

Peak level 94.4 %
Track quality 100.0 %
Test CRC 5B720D1C
Copy CRC 5B720D1C
Copy OK

Track 4
Filename F:\[MyRip]\04 - Cool As A Rule.wav

Pre-gap length 0:00:03.07

Peak level 94.9 %
Track quality 100.0 %
Test CRC 72194BB3
Copy CRC 72194BB3
Copy OK

Track 5
Filename F:\[MyRip]\05 - Santa Cafe.wav

Pre-gap length 0:00:02.08

Peak level 94.3 %
Track quality 100.0 %
Test CRC CE8299A1
Copy CRC CE8299A1
Copy OK

Track 6
Filename F:\[MyRip]\06 - Arc En Ciel.wav

Pre-gap length 0:00:01.67

Peak level 94.4 %
Track quality 100.0 %
Test CRC 795DAA50
Copy CRC 795DAA50
Copy OK

Track 7
Filename F:\[MyRip]\07 - London Skyline.wav

Pre-gap length 0:00:02.37

Peak level 94.7 %
Track quality 100.0 %
Test CRC E59514E3
Copy CRC E59514E3
Copy OK

Track 8
Filename F:\[MyRip]\08 - The Liaison.wav

Pre-gap length 0:00:02.55

Peak level 95.0 %
Track quality 99.9 %
Test CRC 500949E9
Copy CRC 500949E9
Copy OK

Track 9
Filename F:\[MyRip]\09 - Until Always.wav

Pre-gap length 0:00:02.63

Peak level 94.7 %
Track quality 100.0 %
Test CRC 603A5086
Copy CRC 603A5086
Copy OK

Track 10
Filename F:\[MyRip]\10 - Rive Gauche.wav

Pre-gap length 0:00:02.30

Peak level 94.8 %
Track quality 100.0 %
Test CRC DF8E5FA5
Copy CRC DF8E5FA5
Copy OK

Track 11
Filename F:\[MyRip]\11 - Act Of Innocence.wav

Pre-gap length 0:00:03.62

Peak level 94.4 %
Track quality 100.0 %
Test CRC E6CC983D
Copy CRC E6CC983D
Copy OK

No errors occured


End of status report

Acoustic Alchemy - The New Edge (1993) {GRP 97112}
Acoustic Alchemy - The New Edge (1993) {GRP 97112}


Thanks to the original ripper