Subcategories
Tags
Language
Tags

Aerosmith: Singles Collection (1993 - 2002)

Posted By: v3122
Aerosmith: Singles Collection (1993 - 2002)

Aerosmith: Singles Collection (1993 - 2002)
EAC | Flac(Image) + Cue + Log & MP3 CBR 320Kbps
9CD | Label: Various | ~ 1176 or 470 Mb | Artwork -> 126 Mb
Hard Rock

Aerosmith is an American rock band, sometimes referred to as "the Bad Boys from Boston" and "America's Greatest Rock and Roll Band". Their style, which is rooted in blues-based hard rock, has come to also incorporate elements of pop rock, heavy metal, and rhythm and blues, and has inspired many subsequent rock artists. They were formed in Boston, Massachusetts in 1970. Guitarist Joe Perry and bassist Tom Hamilton, originally in a band together called the Jam Band, met up with vocalist Steven Tyler, drummer Joey Kramer, and guitarist Ray Tabano, and formed Aerosmith. In 1971, Tabano was replaced by Brad Whitford, and the band began developing a following in Boston.

~ discogs
Aerosmith: Singles Collection (1993 - 2002)

Aerosmith: Singles Collection (1993 - 2002):

Aerosmith: Singles Collection (1993 - 2002)

Tracklist CD01. 1993 - Amazing (Maxi-CD Single) [ENG GFSTD 63]:

01. Amazing (LP Version) (5:59)
02. Gotta Love It (LP Version) (6:01)
03. Amazing (Orchestral Version) (5:59)
04. Amazing (Acoustic Version) (5:56)

Exact Audio Copy V1.0 beta 2 from 29. April 2011

Отчёт EAC об извлечении, выполненном 8. сентября 2012, 17:30

Aerosmith / Amazing (Maxi-CD Single)

Дисковод: MATSHITADVD-RAM UJ8A0AS Adapter: 0 ID: 1

Режим чтения : Достоверность
Использование точного потока : Да
Отключение кэша аудио : Да
Использование указателей C2 : Нет

Коррекция смещения при чтении : 102
Способность читать области Lead-in и Lead-out : Нет
Заполнение пропущенных сэмплов тишиной : Да
Удаление блоков с тишиной в начале и конце : Нет
При вычислениях CRC использовались нулевые сэмплы : Да
Интерфейс : Встроенный Win32-интерфейс для Win NT/2000

Выходной формат : Пользовательский кодировщик
Выбранный битрейт : 128 kBit/s
Качество : Высокий
Добавление ID3-тега : Нет
Утилита сжатия : C:\Program Files (x86)\Exact Audio Copy\Flac\flac.exe
Дополнительные параметры : -V -8 -T "Date=%year%" -T "Genre=%genre%" %source%


TOC извлечённого CD

Трек | Старт | Длительность | Начальный сектор | Конечный сектор
––––––––––––––––––––––––––––––––––-
1 | 0:00.32 | 5:59.00 | 32 | 26956
2 | 5:59.32 | 6:00.50 | 26957 | 54006
3 | 12:00.07 | 5:59.25 | 54007 | 80956
4 | 17:59.32 | 5:56.25 | 80957 | 107681


Характеристики диапазона извлечения и сообщения об ошибках

Выбранный диапазон

Имя файла F:\Музыка\torrents\Aerosmith - Discography\Aerosmith - Amazing (Maxi-CD Single)\Aerosmith - Amazing.wav

Пиковый уровень 84.3 %
Скорость извлечения 1.1 X
Качество диапазона 100.0 %
CRC теста 384DF7D8
CRC копии 384DF7D8
Копирование… OK

Ошибок не произошло

Конец отчёта

==== Контрольная сумма отчёта 8AB2A862DDD3B2BE28D1796249B384F6D3F27BBAB2E3E6B5E57DD8CA8546F398 ====


[CUETools log; Date: 07.06.2021 10:42:44; Version: 2.1.4]
Pregap length 00:00:32.
[AccurateRip ID: 00041d43-001073bd-21059b04] found.
Track [ CRC | V2 ] Status
01 [aec37346|74cd982a] (00+09/09) Accurately ripped
02 [e5e4b8c0|71b9490a] (00+09/09) Accurately ripped
03 [e1f6f7c5|72baf5fe] (00+10/10) Accurately ripped
04 [342ee141|39fecf38] (00+10/10) Accurately ripped

Track Peak [ CRC32 ] [W/O NULL] [ LOG ]
– 84,3 [384DF7D8] [CA3363ED] CRC32
01 80,2 [704BF052] [B716BD2E]
02 79,0 [16FDA34A] [22BE4BD0]
03 84,3 [1F3A731E] [A2E23235]
04 78,8 [9831CEBB] [364671B9]


Aerosmith: Singles Collection (1993 - 2002)

Tracklist CD02. 1993 - Livin' On The Edge [Germany GED21790]:

01. Livin' On The Edge (LP Version) (6:11)
02. Don`t Stop (Previously Unreleased) (4:10)
03. Flesh (LP Version) (6:00)
04. Livin' On The Edge (Acoustic Version) (5:43)

Exact Audio Copy V1.0 beta 2 from 29. April 2011

Отчёт EAC об извлечении, выполненном 22. сентября 2012, 20:02

Aerosmith / Livin' On The Edge

Дисковод: MATSHITADVD-RAM UJ8A0AS Adapter: 0 ID: 1

Режим чтения : Достоверность
Использование точного потока : Да
Отключение кэша аудио : Да
Использование указателей C2 : Нет

Коррекция смещения при чтении : 102
Способность читать области Lead-in и Lead-out : Нет
Заполнение пропущенных сэмплов тишиной : Да
Удаление блоков с тишиной в начале и конце : Нет
При вычислениях CRC использовались нулевые сэмплы : Да
Интерфейс : Встроенный Win32-интерфейс для Win NT/2000

Выходной формат : Пользовательский кодировщик
Выбранный битрейт : 128 kBit/s
Качество : Высокий
Добавление ID3-тега : Нет
Утилита сжатия : C:\Program Files (x86)\Exact Audio Copy\Flac\flac.exe
Дополнительные параметры : -V -8 -T "Date=%year%" -T "Genre=%genre%" %source%


TOC извлечённого CD

Трек | Старт | Длительность | Начальный сектор | Конечный сектор
––––––––––––––––––––––––––––––––––-
1 | 0:00.33 | 6:10.47 | 33 | 27829
2 | 6:11.05 | 4:09.38 | 27830 | 46542
3 | 10:20.43 | 5:59.55 | 46543 | 73522
4 | 16:20.23 | 5:43.30 | 73523 | 99277


Характеристики диапазона извлечения и сообщения об ошибках

Выбранный диапазон

Имя файла F:\Музыка\torrents\Aerosmith - Discography\Singles\Aerosmith (1993) - Livin' On The Edge\Aerosmith - Livin' On The Edge.wav

Пиковый уровень 99.4 %
Скорость извлечения 1.0 X
Качество диапазона 99.9 %
CRC теста A43B09D0
CRC копии A43B09D0
Копирование… OK

Ошибок не произошло

Конец отчёта

==== Контрольная сумма отчёта 3C40AEF0A9CF5618D777F5278A35EF267C65795FCFE66AA91F64035B220BC0E5 ====


[CUETools log; Date: 07.06.2021 10:44:19; Version: 2.1.4]
Pregap length 00:00:33.
[AccurateRip ID: 0003c5a7-000f0acc-2c052b04] found.
Track [ CRC | V2 ] Status
01 [50e98de8|e984b0cc] (13+21/34) Accurately ripped
02 [dd8a6498|ece21b14] (13+20/33) Accurately ripped
03 [e1f22445|a9b155af] (13+20/33) Accurately ripped
04 [4a73100d|f1f1947b] (13+21/34) Accurately ripped

Track Peak [ CRC32 ] [W/O NULL] [ LOG ]
– 99,4 [A43B09D0] [5B39383C] CRC32
01 98,0 [E5EEDC66] [D0C921E1]
02 99,4 [F026787C] [E7FF2B9C]
03 98,7 [268C7703] [C08054FF]
04 98,0 [9540F0A2] [B7F2D0BC]


Aerosmith: Singles Collection (1993 - 2002)

Tracklist CD03. 1994 - Crazy (Maxi-CD Single) [Japan GEFDM-21932]:

01. Crazy (LP Version) (5:17)
02. Crazy (Orchestral) (5:30)
03. Crazy (Acoustic) (5:17)
04. Amazing (Orchestral) (5:56)
05. Gotta Love It (LP Version) (5:58)

Exact Audio Copy V1.0 beta 2 from 29. April 2011

Отчёт EAC об извлечении, выполненном 11. сентября 2012, 21:01

Aerosmith / Crazy (Maxi-CD Single)

Дисковод: MATSHITADVD-RAM UJ8A0AS Adapter: 0 ID: 1

Режим чтения : Достоверность
Использование точного потока : Да
Отключение кэша аудио : Да
Использование указателей C2 : Нет

Коррекция смещения при чтении : 102
Способность читать области Lead-in и Lead-out : Нет
Заполнение пропущенных сэмплов тишиной : Да
Удаление блоков с тишиной в начале и конце : Нет
При вычислениях CRC использовались нулевые сэмплы : Да
Интерфейс : Встроенный Win32-интерфейс для Win NT/2000

Выходной формат : Пользовательский кодировщик
Выбранный битрейт : 128 kBit/s
Качество : Высокий
Добавление ID3-тега : Нет
Утилита сжатия : C:\Program Files (x86)\Exact Audio Copy\Flac\flac.exe
Дополнительные параметры : -V -8 -T "Date=%year%" -T "Genre=%genre%" %source%


TOC извлечённого CD

Трек | Старт | Длительность | Начальный сектор | Конечный сектор
––––––––––––––––––––––––––––––––––-
1 | 0:00.37 | 5:18.63 | 37 | 23949
2 | 5:19.25 | 5:36.67 | 23950 | 49216
3 | 10:56.17 | 5:37.03 | 49217 | 74494
4 | 16:33.20 | 5:58.07 | 74495 | 101351
5 | 22:31.27 | 5:57.55 | 101352 | 128181


Характеристики диапазона извлечения и сообщения об ошибках

Выбранный диапазон

Имя файла F:\Музыка\torrents\Aerosmith - Discography\Singles\Aerosmith (1994) - Crazy (Maxi-CD Single)\Aerosmith - Crazy.wav

Пиковый уровень 99.6 %
Скорость извлечения 1.1 X
Качество диапазона 100.0 %
CRC теста A0C2BD77
CRC копии A0C2BD77
Копирование… OK

Ошибок не произошло

Конец отчёта

==== Контрольная сумма отчёта CCAD61FC042DC27913E7C04651E9A25A77A06957F3B3DB3E3B027E313494A07A ====


[CUETools log; Date: 07.06.2021 10:45:34; Version: 2.1.4]
Pregap length 00:00:37.
[AccurateRip ID: 0005c191-001affcc-3e06ad05] found.
Track [ CRC | V2 ] Status
01 [f585182b|43eec64a] (05+12/17) Accurately ripped
02 [a61b0d0c|a8146df5] (06+12/18) Accurately ripped
03 [07d8f473|b9b04118] (06+12/18) Accurately ripped
04 [1021f970|684f7886] (06+11/17) Accurately ripped
05 [f7b39d82|42776190] (05+11/16) Accurately ripped

Track Peak [ CRC32 ] [W/O NULL] [ LOG ]
– 99,6 [A0C2BD77] [545C878B] CRC32
01 99,6 [33D74641] [EF993FCA]
02 94,6 [102A91DF] [3000342B]
03 94,6 [C2D009D1] [2FABB662]
04 94,6 [553DDF4C] [57CD6860]
05 97,2 [D82982C2] [C2CA2FB9]


Aerosmith: Singles Collection (1993 - 2002)

Tracklist CD04. 1994 - Crazy [USA PRO-CD-4624]:

01. Crazy (Edit) (4:05)
02. Crazy (Orchestral Edit) (4:05)
03. Crazy (LP Version) (5:19)
04. Crazy (Orchestral Version) (5:34)

Exact Audio Copy V1.0 beta 2 from 29. April 2011

Отчёт EAC об извлечении, выполненном 20. августа 2013, 23:35

Aerosmith / Crazy

Дисковод: MATSHITADVD-RAM UJ8A0AS Adapter: 1 ID: 0

Режим чтения : Достоверность
Использование точного потока : Да
Отключение кэша аудио : Да
Использование указателей C2 : Нет

Коррекция смещения при чтении : 102
Способность читать области Lead-in и Lead-out : Нет
Заполнение пропущенных сэмплов тишиной : Да
Удаление блоков с тишиной в начале и конце : Нет
При вычислениях CRC использовались нулевые сэмплы : Да
Интерфейс : Встроенный Win32-интерфейс для Win NT/2000

Выходной формат : Пользовательский кодировщик
Выбранный битрейт : 128 kBit/s
Качество : Высокий
Добавление ID3-тега : Нет
Утилита сжатия : C:\Program Files\foobar2000\encoders\flac.exe
Дополнительные параметры : -V -8 -T "Date=%year%" -T "Genre=%genre%" %source%


TOC извлечённого CD

Трек | Старт | Длительность | Начальный сектор | Конечный сектор
––––––––––––––––––––––––––––––––––-
1 | 0:00.32 | 4:05.33 | 32 | 18439
2 | 4:05.65 | 4:05.27 | 18440 | 36841
3 | 8:11.17 | 5:18.68 | 36842 | 60759
4 | 13:30.10 | 5:34.32 | 60760 | 85841


Характеристики диапазона извлечения и сообщения об ошибках

Выбранный диапазон

Имя файла E:\Музыка\torrents\Aerosmith - Discography\Singles\Aerosmith (1994) - Crazy\Aerosmith - Crazy.wav

Пиковый уровень 97.2 %
Скорость извлечения 1.1 X
Качество диапазона 100.0 %
CRC теста F7F0DD76
CRC копии F7F0DD76
Копирование… OK

Ошибок не произошло

Конец отчёта

==== Контрольная сумма отчёта BE9C1179FAC2BD5C9300843D2FBF86D22A7EBD30B26963F36ED0EC8B95611AF8 ====


[CUETools log; Date: 07.06.2021 10:46:23; Version: 2.1.4]
Pregap length 00:00:32.
[AccurateRip ID: 000314bc-000c81e8-2a047804] found.
Track [ CRC | V2 ] Status
01 [de981a90|8af05d62] (0+1/1) Accurately ripped
02 [1c6c9eea|ac89e295] (0+1/1) Accurately ripped
03 [eff31e91|8bce0df7] (0+1/1) Accurately ripped
04 [102216fd|a0062aaf] (0+1/1) Accurately ripped

Track Peak [ CRC32 ] [W/O NULL] [ LOG ]
– 97,2 [F7F0DD76] [7160A276] CRC32
01 94,6 [6EBB6245] [25EAA0D7]
02 97,2 [508C4783] [DCF8A967]
03 96,9 [40E91CE3] [1E322C60]
04 94,6 [CC7DFA5E] [A2A4AED0]


Aerosmith: Singles Collection (1993 - 2002)

Tracklist CD05. 1998 - I don't want to miss a thing (Maxi Single) [Japan SRCS 8630]:

01. I Don't Want To Miss A Thing (4:59)
02. I Don't Want To Miss A Thing (Rock Mix) (4:32)
03. Taste Of India (Rock Remix) (5:54)
04. Animal Crackers (2:37)

Exact Audio Copy V1.0 beta 2 from 29. April 2011

Отчёт EAC об извлечении, выполненном 24. июля 2013, 15:53

Aerosmith / I don't want to miss a thing(Maxi Single)

Дисковод: MATSHITADVD-RAM UJ8A0AS Adapter: 1 ID: 0

Режим чтения : Достоверность
Использование точного потока : Да
Отключение кэша аудио : Да
Использование указателей C2 : Нет

Коррекция смещения при чтении : 102
Способность читать области Lead-in и Lead-out : Нет
Заполнение пропущенных сэмплов тишиной : Да
Удаление блоков с тишиной в начале и конце : Нет
При вычислениях CRC использовались нулевые сэмплы : Да
Интерфейс : Встроенный Win32-интерфейс для Win NT/2000

Выходной формат : Пользовательский кодировщик
Выбранный битрейт : 128 kBit/s
Качество : Высокий
Добавление ID3-тега : Нет
Утилита сжатия : C:\Program Files\foobar2000\encoders\flac.exe
Дополнительные параметры : -V -8 -T "Date=%year%" -T "Genre=%genre%" %source%


TOC извлечённого CD

Трек | Старт | Длительность | Начальный сектор | Конечный сектор
––––––––––––––––––––––––––––––––––-
1 | 0:00.00 | 4:59.05 | 0 | 22429
2 | 4:59.05 | 4:32.00 | 22430 | 42829
3 | 9:31.05 | 5:54.07 | 42830 | 69386
4 | 15:25.12 | 2:37.25 | 69387 | 81186


Характеристики диапазона извлечения и сообщения об ошибках

Выбранный диапазон

Имя файла E:\Музыка\torrents\Aerosmith - Discography\Singles\Aerosmith (1998) - I Don't Want To Miss A Thing (Maxi Single) [Japan srcs 8630]\Aerosmith - I Don't Want To Miss A Thing.wav

Пиковый уровень 100.0 %
Скорость извлечения 1.0 X
Качество диапазона 100.0 %
CRC теста D8446C21
CRC копии D8446C21
Копирование… OK

Ошибок не произошло

Конец отчёта

==== Контрольная сумма отчёта 7C96A022625CEBA15BBD27856F198D8BE568CB9C2001AB7183236A1E2C8B99B1 ====


[CUETools log; Date: 07.06.2021 10:47:22; Version: 2.1.4]
[AccurateRip ID: 00034b1a-000d1302-27043a04] found.
Track [ CRC | V2 ] Status
01 [37e3d16b|c19e302c] (06+19/25) Accurately ripped
02 [ec3a7fb9|236f8dea] (07+18/25) Accurately ripped
03 [56a973d0|861d201e] (06+18/24) Accurately ripped
04 [72687274|0192ffed] (06+18/24) Accurately ripped

Track Peak [ CRC32 ] [W/O NULL] [ LOG ]
– 99,9 [D8446C21] [1E823D1D] CRC32
01 98,8 [5CEDBD21] [E829B53D]
02 98,8 [96430CB8] [B51FF004]
03 98,8 [AECC1E89] [9D488B2D]
04 99,9 [2546292C] [E0F2136F]


Aerosmith: Singles Collection (1993 - 2002)

Tracklist CD06. 2001 - Fly Away From Here [Japan SRCS 2452]:

01. Fly Away From Here (Radio Remix Edit) (4:25)
02. Fly Away From Here (Album Version) (5:05)
03. Fly Away From Here (Rock Mix) (4:25)
04. Face (3:08)
05. Fly Away From Here (Orchestral Mix) (4:26)
06. I Don't Want To Miss A Thing (Live) (5:17)

Exact Audio Copy V1.0 beta 2 from 29. April 2011

Отчёт EAC об извлечении, выполненном 13. сентября 2013, 13:01

Aerosmith / Fly Away From Here [Japan SRCS 2452]

Дисковод: MATSHITADVD-RAM UJ8A0AS Adapter: 1 ID: 0

Режим чтения : Достоверность
Использование точного потока : Да
Отключение кэша аудио : Да
Использование указателей C2 : Нет

Коррекция смещения при чтении : 102
Способность читать области Lead-in и Lead-out : Нет
Заполнение пропущенных сэмплов тишиной : Да
Удаление блоков с тишиной в начале и конце : Нет
При вычислениях CRC использовались нулевые сэмплы : Да
Интерфейс : Встроенный Win32-интерфейс для Win NT/2000

Выходной формат : Пользовательский кодировщик
Выбранный битрейт : 128 kBit/s
Качество : Высокий
Добавление ID3-тега : Нет
Утилита сжатия : C:\Program Files\foobar2000\encoders\flac.exe
Дополнительные параметры : -V -8 -T "Date=%year%" -T "Genre=%genre%" %source%


TOC извлечённого CD

Трек | Старт | Длительность | Начальный сектор | Конечный сектор
––––––––––––––––––––––––––––––––––-
1 | 0:00.00 | 4:25.37 | 0 | 19911
2 | 4:25.37 | 5:04.60 | 19912 | 42771
3 | 9:30.22 | 4:25.28 | 42772 | 62674
4 | 13:55.50 | 3:07.57 | 62675 | 76756
5 | 17:03.32 | 4:26.08 | 76757 | 96714
6 | 21:29.40 | 5:16.60 | 96715 | 120474


Характеристики диапазона извлечения и сообщения об ошибках

Выбранный диапазон

Имя файла E:\Музыка\torrents\Aerosmith - Discography\Singles\Aerosmith (2001) - Fly Away From Here [Japan SRCS 2452]\Aerosmith - Fly Away From Here.wav

Пиковый уровень 97.7 %
Скорость извлечения 1.1 X
Качество диапазона 100.0 %
CRC теста F2F61AB3
CRC копии F2F61AB3
Копирование… OK

Ошибок не произошло

Конец отчёта

==== Контрольная сумма отчёта 14F5C784ED5789690F12F4D951D98820959F8CF300B2BA305BB18C1B434FB1A3 ====


[CUETools log; Date: 07.06.2021 10:48:44; Version: 2.1.4]
[AccurateRip ID: 000665ea-0021f841-46064606] found.
Track [ CRC | V2 ] Status
01 [e86a6e4b|8cce1b72] (0+2/2) Accurately ripped
02 [c960fce0|410be68c] (0+2/2) Accurately ripped
03 [2bce8550|75c4dd19] (0+2/2) Accurately ripped
04 [9e4deac7|8acfc41b] (0+2/2) Accurately ripped
05 [fa9f60e3|d7f87779] (0+2/2) Accurately ripped
06 [f001a6bb|a63912f6] (0+2/2) Accurately ripped

Track Peak [ CRC32 ] [W/O NULL] [ LOG ]
– 97,7 [F2F61AB3] [6EF3AA12] CRC32
01 97,7 [553311C0] [5849837D]
02 97,7 [BCA922C5] [A6662764]
03 87,0 [D190A124] [EA5015E4]
04 97,7 [394FDE91] [736EE7FC]
05 89,0 [71A6AFA9] [61A599D7]
06 95,4 [8EA8DEFE] [9D13DB1F]


Aerosmith: Singles Collection (1993 - 2002)

Tracklist CD07. 2001 - Jaded [Eng 670931 2]:

01. Jaded (3:36)
02. Won't Let You Down (3:42)
03. I Don't Want To Miss A Thing (4:57)

Exact Audio Copy V1.0 beta 2 from 29. April 2011

Отчёт EAC об извлечении, выполненном 24. июля 2013, 16:21

Aerosmith / Jaded

Дисковод: MATSHITADVD-RAM UJ8A0AS Adapter: 1 ID: 0

Режим чтения : Достоверность
Использование точного потока : Да
Отключение кэша аудио : Да
Использование указателей C2 : Нет

Коррекция смещения при чтении : 102
Способность читать области Lead-in и Lead-out : Нет
Заполнение пропущенных сэмплов тишиной : Да
Удаление блоков с тишиной в начале и конце : Нет
При вычислениях CRC использовались нулевые сэмплы : Да
Интерфейс : Встроенный Win32-интерфейс для Win NT/2000

Выходной формат : Пользовательский кодировщик
Выбранный битрейт : 128 kBit/s
Качество : Высокий
Добавление ID3-тега : Нет
Утилита сжатия : C:\Program Files\foobar2000\encoders\flac.exe
Дополнительные параметры : -V -8 -T "Date=%year%" -T "Genre=%genre%" %source%


TOC извлечённого CD

Трек | Старт | Длительность | Начальный сектор | Конечный сектор
––––––––––––––––––––––––––––––––––-
1 | 0:00.00 | 3:35.50 | 0 | 16174
2 | 3:35.50 | 3:42.02 | 16175 | 32826
3 | 7:17.52 | 4:57.35 | 32827 | 55136


Характеристики диапазона извлечения и сообщения об ошибках

Выбранный диапазон

Имя файла E:\Музыка\torrents\Aerosmith - Discography\Singles\Aerosmith (2001) - Jaded [England 670931 2]\Aerosmith - Jaded.wav

Пиковый уровень 100.0 %
Скорость извлечения 1.0 X
Качество диапазона 100.0 %
CRC теста 64052C31
CRC копии 64052C31
Копирование… OK

Ошибок не произошло

Конец отчёта

==== Контрольная сумма отчёта 9F61F9D2CB3A048BA4652D872019D32E7D0B33E3AA6C50F007C0F6CEA497C7AB ====


[CUETools log; Date: 07.06.2021 10:49:22; Version: 2.1.4]
[AccurateRip ID: 000196cb-00055c94-1c02df03] found.
Track [ CRC | V2 ] Status
01 [efefc717|8ebdb0c7] (07+08/15) Accurately ripped
02 [d2f09e11|91855b06] (07+09/16) Accurately ripped
03 [33d13314|8af80988] (07+08/15) Accurately ripped

Track Peak [ CRC32 ] [W/O NULL] [ LOG ]
– 100,0 [64052C31] [FFF1AB31] CRC32
01 97,7 [D0ED74BE] [3A177C6D]
02 97,7 [E9771498] [777230A2]
03 100,0 [AFB4D39F] [65471438]


Aerosmith: Singles Collection (1993 - 2002)

Tracklist CD08. 2001 - Jaded [JAPAN SRCS 2439]:

01. Jaded (Album Version) (3:35)
02. Jaded (Acoustic Mix) (3:34)
03. Angel's Eye (3:22)
04. Jaded (Guitars Mix) (3:37)
05. Under My Skin (1:02)

Exact Audio Copy V1.0 beta 2 from 29. April 2011

Отчёт EAC об извлечении, выполненном 24. июля 2013, 15:11

Aerosmith / Jaded [CD-Single]

Дисковод: MATSHITADVD-RAM UJ8A0AS Adapter: 1 ID: 0

Режим чтения : Достоверность
Использование точного потока : Да
Отключение кэша аудио : Да
Использование указателей C2 : Нет

Коррекция смещения при чтении : 102
Способность читать области Lead-in и Lead-out : Нет
Заполнение пропущенных сэмплов тишиной : Да
Удаление блоков с тишиной в начале и конце : Нет
При вычислениях CRC использовались нулевые сэмплы : Да
Интерфейс : Встроенный Win32-интерфейс для Win NT/2000

Выходной формат : Пользовательский кодировщик
Выбранный битрейт : 128 kBit/s
Качество : Высокий
Добавление ID3-тега : Нет
Утилита сжатия : C:\Program Files\foobar2000\encoders\flac.exe
Дополнительные параметры : -V -8 -T "Date=%year%" -T "Genre=%genre%" %source%


TOC извлечённого CD

Трек | Старт | Длительность | Начальный сектор | Конечный сектор
––––––––––––––––––––––––––––––––––-
1 | 0:00.00 | 3:35.07 | 0 | 16131
2 | 3:35.07 | 3:33.45 | 16132 | 32151
3 | 7:08.52 | 3:21.60 | 32152 | 47286
4 | 10:30.37 | 3:36.63 | 47287 | 63549
5 | 14:07.25 | 1:02.12 | 63550 | 68211


Характеристики диапазона извлечения и сообщения об ошибках

Выбранный диапазон

Имя файла E:\Музыка\torrents\Aerosmith - Discography\Singles\Aerosmith (2001) - Jaded [SRCS 2439]\Aerosmith - Jaded.wav

Пиковый уровень 100.0 %
Скорость извлечения 1.0 X
Качество диапазона 100.0 %
CRC теста 0D54AF64
CRC копии 0D54AF64
Копирование… OK

Ошибок не произошло

Конец отчёта

==== Контрольная сумма отчёта D128D9F8C3CEB47682C934B1A4606FA8A3DADC9669EED663491C225ED9CEEE33 ====


[CUETools log; Date: 07.06.2021 10:51:23; Version: 2.1.4]
[AccurateRip ID: 00037805-000ff19b-33038d05] found.
Track [ CRC | V2 ] Status
01 [580313b1|f46ce32f] (0+4/4) Accurately ripped
02 [73755760|d2248f65] (0+4/4) Accurately ripped
03 [d5457e57|62ff9dad] (0+4/4) Accurately ripped
04 [a7ac2f55|9b726bf8] (0+4/4) Accurately ripped
05 [239d40e1|8d56bb7d] (0+4/4) Accurately ripped

Track Peak [ CRC32 ] [W/O NULL] [ LOG ]
– 99,9 [0D54AF64] [F0A3EB5A] CRC32
01 99,9 [169EB194] [5B75A083]
02 99,9 [7F2C6294] [5B3F0165]
03 99,9 [BFDED690] [B06BA54E]
04 99,9 [7804B161] [69960D76]
05 99,9 [2BA97681] [FCB9E43C]


Aerosmith: Singles Collection (1993 - 2002)

Tracklist CD09. 2002 - Girls Of Summer [Austria 672771 1]:

01. Girls Of Summer (3:15)
02. Jaded (3:34)

Exact Audio Copy V1.0 beta 2 from 29. April 2011

Отчёт EAC об извлечении, выполненном 4. июня 2013, 22:15

Aerosmith / Girls Of Summer

Дисковод: MATSHITADVD-RAM UJ8A0AS Adapter: 1 ID: 0

Режим чтения : Достоверность
Использование точного потока : Да
Отключение кэша аудио : Да
Использование указателей C2 : Нет

Коррекция смещения при чтении : 102
Способность читать области Lead-in и Lead-out : Нет
Заполнение пропущенных сэмплов тишиной : Да
Удаление блоков с тишиной в начале и конце : Нет
При вычислениях CRC использовались нулевые сэмплы : Да
Интерфейс : Встроенный Win32-интерфейс для Win NT/2000

Выходной формат : Пользовательский кодировщик
Выбранный битрейт : 128 kBit/s
Качество : Высокий
Добавление ID3-тега : Нет
Утилита сжатия : C:\Program Files (x86)\Exact Audio Copy\Flac\flac.exe
Дополнительные параметры : -V -8 -T "Date=%year%" -T "Genre=%genre%" %source%


TOC извлечённого CD

Трек | Старт | Длительность | Начальный сектор | Конечный сектор
––––––––––––––––––––––––––––––––––-
1 | 0:00.00 | 3:14.74 | 0 | 14623
2 | 3:14.74 | 3:34.07 | 14624 | 30680


Характеристики диапазона извлечения и сообщения об ошибках

Выбранный диапазон

Имя файла D:\Музыка\torrents\Aerosmith - Discography\Singles\Aerosmith (2002) - Girls Of Summer [Austria 672771 1]\Aerosmith - Girls Of Summer.wav

Пиковый уровень 98.8 %
Скорость извлечения 0.9 X
Качество диапазона 100.0 %
CRC теста 522EA65F
CRC копии 522EA65F
Копирование… OK

Ошибок не произошло

Конец отчёта

==== Контрольная сумма отчёта 08D1A98A91FD348E75F6527BB97E18F465D78FD7D2C7980F63FDE8FD412C6163 ====


[CUETools log; Date: 07.06.2021 10:51:54; Version: 2.1.4]
[AccurateRip ID: 0000b0f9-0001d9cc-12019902] found.
Track [ CRC | V2 ] Status
01 [2976b68c|79e48309] (0+1/2) Accurately ripped
02 [f346c98b|e69d5918] (0+1/2) Accurately ripped

Track Peak [ CRC32 ] [W/O NULL] [ LOG ]
– 98,8 [522EA65F] [D86D482E] CRC32
01 98,8 [35752093] [CEC39847]
02 98,8 [986AC894] [5ECE4540]


All thanks go to the original releaser

Aerosmith in my Blog

Download Aerosmith: Singles Collection (1993 - 2002):