Tags
Language
Tags

Al Di Meola - Land Of The Midnight Sun (1976) Japanese Remastered Reissue 1997

Posted By: Designol
Al Di Meola - Land Of The Midnight Sun (1976) Japanese Remastered Reissue 1997

Al Di Meola - Land Of The Midnight Sun (1976) Japanese Reissue 1997
EAC | FLAC | Tracks (Cue&Log) ~ 249 Mb | Mp3 (CBR320) ~ 110 Mb | Scans included
Fusion, Jazz Rock, Guitar Virtuoso | Label: Sony Records | # SRCS 9180 | Time: 00:35:23

One of the guitar heroes of fusion, Al di Meola was just 22-years-old at the time of his debut as a leader but already a veteran of Chick Corea's Return to Forever. The complex pieces (which include the three-part "Suite-Golden Dawn," an acoustic duet with Corea on "Short Tales of the Black Forest," and a brief Bach violin sonata show di Meola's range even at this early stage. With assistance from such top players as bassists Jaco Pastorius and Stanley Clarke, keyboardist Barry Miles, and drummers Lenny White and Steve Gadd, this was a very impressive beginning to di Meola's solo career.

Review by Scott Yanow, Allmusic.com

Al Di Meola - Land Of The Midnight Sun (1976) Japanese Remastered Reissue 1997



Performers:

Al Di Meola - guitars, synthesizer, percussion, vocals
Anthony Jackson - bass guitar (1, 2)
Stanley Clarke - bass guitar, vocals (4)
Jaco Pastorius - bass guitar (5)
Barry Miles - keyboards, synthesizer (2, 5)
Chick Corea- piano, marimba (6)
Steve Gadd - drums (1)
Lenny White - drums (2)
Alphonse Mouzon - drums (5)
James Mingo Lewis - percussion (1, 2, 4, 5), keyboards (1)
Patty Buyukas - vocals (4)

Tracklist:

1. The Wizard (06:50)
2. Land Of The Midnight Sun (09:12)
3. Sarabande From Violin Sonata In B Minor (01:19)
4. Love Theme from 'Pictures Of The Sea' (02:28)
5. Suite - Golden Dawn (09:49)
6. Short Tales Of The Black Forest (05:42)


Exact Audio Copy V1.1 from 23. June 2015

EAC extraction logfile from 21. March 2016, 2:48

Al Di Meola / Land Of The Midnight Sun

Used drive : HL-DT-STDVD+-RW GS30N Adapter: 1 ID: 0

Read mode : Secure
Utilize accurate stream : Yes
Defeat audio cache : Yes
Make use of C2 pointers : No

Read offset correction : 667
Overread into Lead-In and Lead-Out : No
Fill up missing offset samples with silence : Yes
Delete leading and trailing silent blocks : No
Null samples used in CRC calculations : Yes
Used interface : Native Win32 interface for Win NT & 2000
Gap handling : Appended to previous track

Used output format : User Defined Encoder
Selected bitrate : 1024 kBit/s
Quality : High
Add ID3 tag : No
Command line compressor : C:\Program Files (x86)\Exact Audio Copy\FLAC\FLAC.EXE
Additional command line options : -6 -V -T "ARTIST=%artist%" -T "TITLE=%title%" -T "ALBUM=%albumtitle%" -T "DATE=%year%" -T "TRACKNUMBER=%tracknr%" -T "GENRE=%genre%" -T "COMMENT=%comment%" -T "BAND=%albuminterpret%" -T "ALBUMARTIST=%albuminterpret%" -T "COMPOSER=%composer%" %haslyrics%–tag-from-file=LYRICS="%lyricsfile%"%haslyrics% -T "DISCNUMBER=%cdnumber%" -T "TOTALDISCS=%totalcds%" -T "TOTALTRACKS=%numtracks%" %hascover%–picture="%coverfile%"%hascover% %source% -o %dest%


TOC of the extracted CD

Track | Start | Length | Start sector | End sector
––––––––––––––––––––––––––––-
1 | 0:00.00 | 6:50.69 | 0 | 30818
2 | 6:50.69 | 9:12.11 | 30819 | 72229
3 | 16:03.05 | 1:19.62 | 72230 | 78216
4 | 17:22.67 | 2:28.03 | 78217 | 89319
5 | 19:50.70 | 9:49.72 | 89320 | 133566
6 | 29:40.67 | 5:42.13 | 133567 | 159229


Track 1

Filename D:\music\Al Di Meola - Land Of The Midnight Sun\01. Al Di Meola - The Wizard.wav

Pre-gap length 0:00:02.00

Peak level 100.0 %
Extraction speed 3.1 X
Track quality 100.0 %
Test CRC 9EFB82FE
Copy CRC 9EFB82FE
Accurately ripped (confidence 2) [38D174FB] (AR v2)
Copy OK

Track 2

Filename D:\music\Al Di Meola - Land Of The Midnight Sun\02. Al Di Meola - Land Of The Midnight Sun.wav

Pre-gap length 0:00:02.29

Peak level 100.0 %
Extraction speed 3.8 X
Track quality 100.0 %
Test CRC FE46A259
Copy CRC FE46A259
Accurately ripped (confidence 2) [AAAF5AAF] (AR v2)
Copy OK

Track 3

Filename D:\music\Al Di Meola - Land Of The Midnight Sun\03. Al Di Meola - Sarabande From Violin Sonata In B Minor.wav

Pre-gap length 0:00:01.28

Peak level 84.9 %
Extraction speed 3.0 X
Track quality 100.0 %
Test CRC EC886C88
Copy CRC EC886C88
Accurately ripped (confidence 2) [7F4758D1] (AR v2)
Copy OK

Track 4

Filename D:\music\Al Di Meola - Land Of The Midnight Sun\04. Al Di Meola - Love Theme from ''Pictures Of The Sea''.wav

Peak level 96.1 %
Extraction speed 2.7 X
Track quality 99.9 %
Test CRC 94297224
Copy CRC 94297224
Accurately ripped (confidence 2) [55BA812A] (AR v2)
Copy OK

Track 5

Filename D:\music\Al Di Meola - Land Of The Midnight Sun\05. Al Di Meola - Suite - Golden Dawn.wav

Pre-gap length 0:00:02.20

Peak level 100.0 %
Extraction speed 4.2 X
Track quality 99.9 %
Test CRC 71FC46D5
Copy CRC 71FC46D5
Accurately ripped (confidence 2) [7FF60CBC] (AR v2)
Copy OK

Track 6

Filename D:\music\Al Di Meola - Land Of The Midnight Sun\06. Al Di Meola - Short Tales Of The Black Forest.wav

Peak level 100.0 %
Extraction speed 4.8 X
Track quality 100.0 %
Test CRC E1775964
Copy CRC E1775964
Accurately ripped (confidence 2) [9CEB4334] (AR v2)
Copy OK


All tracks accurately ripped

No errors occurred

End of status report

–– CUETools DB Plugin V2.1.6

[CTDB TOCID: wOeacJsddLOcMYeXHKUI1aBqmqk-] found
Submit result: wOeacJsddLOcMYeXHKUI1aBqmqk- has been confirmed
Track | CTDB Status
1 | (10/10) Accurately ripped
2 | (10/10) Accurately ripped
3 | (10/10) Accurately ripped
4 | (10/10) Accurately ripped
5 | (10/10) Accurately ripped
6 | (10/10) Accurately ripped


==== Log checksum 4FB6ACBE2F617D1C321726129CBEAFCB18C4917C0ABBACF75A3375D4D5F0D226 ====

foobar2000 1.2 / Dynamic Range Meter 1.1.1
log date: 2016-03-23 12:26:21

––––––––––––––––––––––––––––––––––––––––
Analyzed: Al Di Meola / Land Of The Midnight Sun
––––––––––––––––––––––––––––––––––––––––

DR Peak RMS Duration Track
––––––––––––––––––––––––––––––––––––––––
DR9 0.00 dB -11.01 dB 6:51 01-The Wizard
DR9 0.00 dB -11.55 dB 9:12 02-Land Of The Midnight Sun
DR14 -1.41 dB -18.54 dB 1:20 03-Sarabande From Violin Sonata In B Minor
DR11 -0.34 dB -13.92 dB 2:28 04-Love Theme from 'Pictures Of The Sea'
DR7 0.00 dB -8.90 dB 9:50 05-Suite - Golden Dawn
DR8 0.00 dB -12.15 dB 5:42 06-Short Tales Of The Black Forest
––––––––––––––––––––––––––––––––––––––––

Number of tracks: 6
Official DR value: DR10

Samplerate: 44100 Hz
Channels: 2
Bits per sample: 16
Bitrate: 807 kbps
Codec: FLAC
================================================================================

Al Di Meola - Land Of The Midnight Sun (1976) Japanese Remastered Reissue 1997

Al Di Meola - Land Of The Midnight Sun (1976) Japanese Remastered Reissue 1997

All thanks to original releaser - measet

More interesting music in My Blog