Tags
Language
Tags

Al Di Meola - Splendido Hotel (1980)

Posted By: v3122
Al Di Meola - Splendido Hotel (1980)

Al Di Meola - Splendido Hotel (1980)
EAC | Flac(Image) + Cue + Log & MP3 CBR 320Kbps
1990 | CBS, CK 46117 | ~ 423 or 162 Mb | Artwork(jpg) -> 47 Mb
Jazz Fusion

Talk about ambitious. This two-LP set finds guitarist Al di Meola performing with his quintet of the time (featuring keyboardist Philippe Saisse), with studio musicians, solo, in a reunion with pianist Chick Corea, singing a love song, and welcoming veteran Les Paul for a version of "Spanish Eyes." Most of the music works quite well and it shows that di Meola (best-known for his speedy rock-oriented solos) is a surprisingly well-rounded and versatile musician.

by Scott Yanow, allmusic
Al Di Meola - Splendido Hotel (1980):

Al Di Meola - Splendido Hotel (1980)

Tracklist:

01. Alien Chase On Arabian Desert (8:58)
02. Silent Story In Her Eyes (7:35)
03. Roller Jubilee (4:43)
04. Two To Tango (4:13)
05. Al Di's Dream Theme (6:50)
06. Dinner Music Of The Gods (8:33)
07. Splendido Sundance (4:51)
08. I Can Tell (4:01)
09. Spanish Eyes (5:11)
10. Isfahan (11:35)
11. Bianca's Midnight Lullaby (1:54)

Exact Audio Copy V1.1 from 23. June 2015

EAC extraction logfile from 8. October 2015, 17:56

Al Di Meola / Splendido Hotel (CK 46117)

Used drive : HL-DT-STDVDRAM GE20NU11 Adapter: 1 ID: 0

Read mode : Secure
Utilize accurate stream : Yes
Defeat audio cache : Yes
Make use of C2 pointers : No

Read offset correction : 667
Overread into Lead-In and Lead-Out : No
Fill up missing offset samples with silence : Yes
Delete leading and trailing silent blocks : No
Null samples used in CRC calculations : Yes
Used interface : Native Win32 interface for Win NT & 2000

Used output format : User Defined Encoder
Selected bitrate : 896 kBit/s
Quality : High
Add ID3 tag : No
Command line compressor : C:\Program Files\EAC 3\Exact Audio Copy\Flac\flac.exe
Additional command line options : -V -8 %source%


TOC of the extracted CD

Track | Start | Length | Start sector | End sector
––––––––––––––––––––––––––––-
1 | 0:00.00 | 8:58.70 | 0 | 40419
2 | 8:58.70 | 7:35.37 | 40420 | 74581
3 | 16:34.32 | 4:43.70 | 74582 | 95876
4 | 21:18.27 | 4:13.73 | 95877 | 114924
5 | 25:32.25 | 6:50.55 | 114925 | 145729
6 | 32:23.05 | 8:33.10 | 145730 | 184214
7 | 40:56.15 | 4:51.32 | 184215 | 206071
8 | 45:47.47 | 4:01.30 | 206072 | 224176
9 | 49:49.02 | 5:11.18 | 224177 | 247519
10 | 55:00.20 | 11:35.15 | 247520 | 299659
11 | 66:35.35 | 1:54.15 | 299660 | 308224


Range status and errors

Selected range

Filename C:\OdW\Al di Meola (1980) Splendido Hotel (CK 46117)\Al Di Meola - Splendido Hotel (CK 46117).wav

Peak level 97.7 %
Extraction speed 5.6 X
Range quality 100.0 %
Test CRC EDAB238A
Copy CRC EDAB238A
Copy OK

No errors occurred


AccurateRip summary

Track 1 accurately ripped (confidence 6) [322C3CCD] (AR v2)
Track 2 accurately ripped (confidence 7) [18C51108] (AR v2)
Track 3 accurately ripped (confidence 7) [5922DDA2] (AR v2)
Track 4 accurately ripped (confidence 7) [8066791E] (AR v2)
Track 5 accurately ripped (confidence 7) [0E5B154F] (AR v2)
Track 6 accurately ripped (confidence 7) [5DC21BBB] (AR v2)
Track 7 accurately ripped (confidence 7) [861BF563] (AR v2)
Track 8 accurately ripped (confidence 7) [D5AF8F77] (AR v2)
Track 9 accurately ripped (confidence 7) [76E3696F] (AR v2)
Track 10 accurately ripped (confidence 6) [4761D0FD] (AR v2)
Track 11 accurately ripped (confidence 7) [B4FFD3E8] (AR v2)

All tracks accurately ripped

End of status report

–– CUETools DB Plugin V2.1.6

[CTDB TOCID: 9u.eA9pSp136xJRp6xB5mYSCWGo-] found
Submit result: 9u.eA9pSp136xJRp6xB5mYSCWGo- has been confirmed
Track | CTDB Status
1 | ( 3/10) Accurately ripped
2 | ( 3/10) Accurately ripped
3 | ( 3/10) Accurately ripped
4 | ( 3/10) Accurately ripped
5 | ( 3/10) Accurately ripped
6 | ( 3/10) Accurately ripped
7 | ( 3/10) Accurately ripped
8 | ( 3/10) Accurately ripped
9 | ( 3/10) Accurately ripped
10 | ( 3/10) Accurately ripped
11 | ( 3/10) Accurately ripped


==== Log checksum 86805AD90A40E6C12AC7446FB42BD4F2C529444DF5DB8017B4A774905043A5D0 ====


[CUETools log; Date: 08.10.2015 18:02:19; Version: 2.1.4]
[CTDB TOCID: 9u.eA9pSp136xJRp6xB5mYSCWGo-] found.
Track | CTDB Status
1 | ( 4/11) Accurately ripped
2 | ( 4/11) Accurately ripped
3 | ( 4/11) Accurately ripped
4 | ( 4/11) Accurately ripped
5 | ( 4/11) Accurately ripped
6 | ( 4/11) Accurately ripped
7 | ( 4/11) Accurately ripped
8 | ( 4/11) Accurately ripped
9 | ( 4/11) Accurately ripped
10 | ( 4/11) Accurately ripped
11 | ( 4/11) Accurately ripped
[AccurateRip ID: 001d9f9b-00fcbaf6-b0100d0b] found.
Track [ CRC | V2 ] Status
01 [1806ae8e|322c3ccd] (03+06/22) Accurately ripped
02 [3e4d70c7|18c51108] (03+07/24) Accurately ripped
03 [4351f08b|5922dda2] (03+07/24) Accurately ripped
04 [efc5ca91|8066791e] (03+07/24) Accurately ripped
05 [5816b855|0e5b154f] (03+07/24) Accurately ripped
06 [6ced136f|5dc21bbb] (03+07/24) Accurately ripped
07 [342279f1|861bf563] (03+07/24) Accurately ripped
08 [40882153|d5af8f77] (03+07/24) Accurately ripped
09 [126f6392|76e3696f] (03+07/23) Accurately ripped
10 [14951343|4761d0fd] (03+06/22) Accurately ripped
11 [135234a6|b4ffd3e8] (03+07/24) Accurately ripped
Offsetted by 94:
01 [226eba20] (00/22) No match (V2 was not tested)
02 [6415b3d2] (00/24) No match (V2 was not tested)
03 [0add6bbc] (00/24) No match (V2 was not tested)
04 [dfedb86d] (00/24) No match (V2 was not tested)
05 [8caf5a51] (00/24) No match (V2 was not tested)
06 [e0ecd0c2] (00/24) No match (V2 was not tested)
07 [046e7e1a] (00/24) No match (V2 was not tested)
08 [c9695909] (00/24) No match (V2 was not tested)
09 [432d41d6] (00/23) No match (V2 was not tested)
10 [23d25ac7] (00/22) No match (V2 was not tested)
11 [c18fbc5a] (00/24) No match (V2 was not tested)

Track Peak [ CRC32 ] [W/O NULL] [ LOG ]
– 97,7 [EDAB238A] [0429FCB0] CRC32
01 95,5 [6F28C866] [17F6D6A2]
02 85,1 [49E08862] [B709D1FD]
03 93,3 [54812771] [A60C4804]
04 95,1 [28F24525] [33DE4D43]
05 97,7 [1A7CE7E9] [8FE6B03E]
06 95,4 [7C67DEFD] [B01FD7C4]
07 79,4 [D8AC31F9] [7B7B3CF4]
08 97,7 [06C4B640] [411BF5C3]
09 97,7 [3554C9A9] [7A86D2C9]
10 89,3 [4B2DEEF7] [F0107571]
11 60,2 [7760EBCE] [E8F35F8B]


Al Di Meola - Splendido Hotel (1980)

All thanks go to the original releaser

Al Di Meola in my Blog

Download Al Di Meola - Splendido Hotel (1980):