Subcategories
Tags
Language
Tags

Alanis Morissette - Feast On Scraps (2002) [CD + DVD-9]

Posted By: v3122
Alanis Morissette - Feast On Scraps (2002) [CD + DVD-9]

Alanis Morissette - Feast On Scraps (2002)
EAC | Flac(Image) + Cue + Log & MP3 CBR 320Kbps
Warner Music, 7599 38533-2 | ~ 295 or 108 Mb | Scans
DVD-9: PAL 16:9 (720x576) VBR | LinearPCM, 2 ch / Dolby AC3, 6 ch
Alternative Rock

Fresh from her "Toward Our Union Mended" 2002 world tour, Alanis Morissette hit the studio to pull together FEAST ON SCRAPS, a double CD/DVD featuring eight unreleased audio tracks from her last studio outing UNDER RUG SWEPT and a full concert from Rotterdam on the DVD. A master of looking inward and emerging with musical manna, Morissette does not disappoint as she dips into feelings of undeserved success (the subtly tumultuous "Fear Of Bliss"), guilt over this dissatisfaction (a gently lilting "Offer"), and a heavy dose of fame-fueled ennui (the Middle Eastern-flavored "Purgatorying"). Other highlights include the harder-edged "Sister Blister," touching break-up ballad "Simple Together," and a gorgeous solo acoustic reading of her hit "Hands Clean." The accompanying DVD further enhances this already stellar package with the aforementioned live show packed with Morissette favorites "Ironic," "You Oughta Know," and "Hand In My Pocket" along with behind-the-scenes footage from the UNDER RUG SWEPT sessions, rare home videos, and live footage from other cities on the 2002 tour. FEAST ON SCRAPS is far from skimpy, and on the contrary, turns out to be a fine audio/visual meal.

~ allmusic
Alanis Morissette - Feast On Scraps (2002) [CD + DVD-9]


Alanis Morissette - Feast On Scraps (2002):

Alanis Morissette - Feast On Scraps (2002) [CD + DVD-9]

Tracklist CD:

01 Fear Of Bliss (04:38)
02 Bent For You (04:41)
03 Sorry To Myself (05:44)
04 Sister Blister (04:13)
05 Offer (04:05)
06 Unprodigal Daughter (04:13)
07 Simple Together (04:48)
08 Purgatorying (04:28)
09 Hands Clean (Acoustic) (04:10)

Converted to Image (CUETools 2.1.4)

Exact Audio Copy V1.0 beta 1 from 15. November 2010

EAC extraction logfile from 29. March 2011, 10:55

Alanis Morissette / Feast On Scraps

Used drive : ASUS DRW-1814BLT Adapter: 2 ID: 0

Read mode : Secure
Utilize accurate stream : Yes
Defeat audio cache : Yes
Make use of C2 pointers : No

Read offset correction : 6
Overread into Lead-In and Lead-Out : No
Fill up missing offset samples with silence : Yes
Delete leading and trailing silent blocks : No
Null samples used in CRC calculations : Yes
Used interface : Native Win32 interface for Win NT & 2000
Gap handling : Appended to previous track

Used output format : User Defined Encoder
Selected bitrate : 768 kBit/s
Quality : High
Add ID3 tag : No
Command line compressor : C:\Program Files (x86)\Exact Audio Copy\Flac\flac.exe
Additional command line options : -8 -V -T "ARTIST=%a" -T "TITLE=%t" -T "ALBUM=%g" -T "DATE=%y" -T "TRACKNUMBER=%n" -T "TOTALTRACKS=%x" -T "GENRE=%m" -T "ALBUMARTIST=%v" -T "ALBUM ARTIST=%v" -T "COMMENT=EAC Secure Mode, Test & Copy, AccurateRip, FLAC -8" %s


TOC of the extracted CD

Track | Start | Length | Start sector | End sector
––––––––––––––––––––––––––––-
1 | 0:00.00 | 4:37.50 | 0 | 20824
2 | 4:37.50 | 4:40.58 | 20825 | 41882
3 | 9:18.33 | 5:43.47 | 41883 | 67654
4 | 15:02.05 | 4:12.69 | 67655 | 86623
5 | 19:14.74 | 4:04.66 | 86624 | 104989
6 | 23:19.65 | 4:12.52 | 104990 | 123941
7 | 27:32.42 | 4:48.09 | 123942 | 145550
8 | 32:20.51 | 4:27.45 | 145551 | 165620
9 | 36:48.21 | 4:08.04 | 165621 | 184224
10 | 43:28.25 | 13:09.07 | 195625 | 254806


Track 1

Filename E:\Datas\Music\Rips\Alanis Morissette - Feast On Scraps (2002) [FLAC] (With DVD5 PAL)\Disc 1of1\01 - Fear Of Bliss.wav

Pre-gap length 0:00:02.00

Peak level 96.9 %
Extraction speed 2.7 X
Track quality 100.0 %
Test CRC 631B1696
Copy CRC 631B1696
Accurately ripped (confidence 17) [5C096253]
Copy OK

Track 2

Filename E:\Datas\Music\Rips\Alanis Morissette - Feast On Scraps (2002) [FLAC] (With DVD5 PAL)\Disc 1of1\02 - Bent For You.wav

Peak level 88.0 %
Extraction speed 3.0 X
Track quality 100.0 %
Test CRC 4B98D096
Copy CRC 4B98D096
Accurately ripped (confidence 18) [5CA7D417]
Copy OK

Track 3

Filename E:\Datas\Music\Rips\Alanis Morissette - Feast On Scraps (2002) [FLAC] (With DVD5 PAL)\Disc 1of1\03 - Sorry To Myself.wav

Peak level 98.8 %
Extraction speed 3.5 X
Track quality 100.0 %
Test CRC 10B01E64
Copy CRC 10B01E64
Accurately ripped (confidence 18) [08B62D52]
Copy OK

Track 4

Filename E:\Datas\Music\Rips\Alanis Morissette - Feast On Scraps (2002) [FLAC] (With DVD5 PAL)\Disc 1of1\04 - Sister Blister.wav

Peak level 98.8 %
Extraction speed 3.6 X
Track quality 100.0 %
Test CRC 90C3C375
Copy CRC 90C3C375
Accurately ripped (confidence 18) [0D65CDB3]
Copy OK

Track 5

Filename E:\Datas\Music\Rips\Alanis Morissette - Feast On Scraps (2002) [FLAC] (With DVD5 PAL)\Disc 1of1\05 - Offer.wav

Pre-gap length 0:00:03.00

Peak level 98.8 %
Extraction speed 3.8 X
Track quality 100.0 %
Test CRC 20ECAC61
Copy CRC 20ECAC61
Accurately ripped (confidence 18) [432C1FF7]
Copy OK

Track 6

Filename E:\Datas\Music\Rips\Alanis Morissette - Feast On Scraps (2002) [FLAC] (With DVD5 PAL)\Disc 1of1\06 - Unprodigal Daughter.wav

Pre-gap length 0:00:00.72

Peak level 98.8 %
Extraction speed 2.4 X
Track quality 99.9 %
Test CRC FD8156FD
Copy CRC FD8156FD
Accurately ripped (confidence 18) [19A4A8F9]
Copy OK

Track 7

Filename E:\Datas\Music\Rips\Alanis Morissette - Feast On Scraps (2002) [FLAC] (With DVD5 PAL)\Disc 1of1\07 - Simple Together.wav

Pre-gap length 0:00:02.17

Peak level 98.8 %
Extraction speed 2.9 X
Track quality 100.0 %
Test CRC D4C5B274
Copy CRC D4C5B274
Accurately ripped (confidence 18) [E5489A83]
Copy OK

Track 8

Filename E:\Datas\Music\Rips\Alanis Morissette - Feast On Scraps (2002) [FLAC] (With DVD5 PAL)\Disc 1of1\08 - Purgatorying.wav

Pre-gap length 0:00:00.16

Peak level 95.7 %
Extraction speed 4.5 X
Track quality 100.0 %
Test CRC FE41A056
Copy CRC FE41A056
Accurately ripped (confidence 18) [722D25B6]
Copy OK

Track 9

Filename E:\Datas\Music\Rips\Alanis Morissette - Feast On Scraps (2002) [FLAC] (With DVD5 PAL)\Disc 1of1\09 - Hands Clean (Acoustic).wav

Pre-gap length 0:00:00.59

Peak level 98.8 %
Extraction speed 2.7 X
Track quality 99.9 %
Test CRC 413DEB46
Copy CRC 413DEB46
Accurately ripped (confidence 18) [96F3AAC9]
Copy OK


All tracks accurately ripped

No errors occurred

End of status report

==== Log checksum 577188EE3F131C3FC7D2535C403204DED4AA58967E065E894D0A24E543F49F4B ====

foobar2000 1.2.9 / Dynamic Range Meter 1.1.1
log date: 2017-01-09 12:07:40

––––––––––––––––––––––––––––––––––––––––
Analyzed: Alanis Morissette / Feast On Scraps
––––––––––––––––––––––––––––––––––––––––

DR Peak RMS Duration Track
––––––––––––––––––––––––––––––––––––––––
DR6 -0.27 dB -9.18 dB 4:38 01-Fear Of Bliss
DR6 -1.11 dB -9.21 dB 4:41 02-Bent For You
DR7 -0.10 dB -9.52 dB 5:44 03-Sorry To Myself
DR5 -0.10 dB -7.64 dB 4:13 04-Sister Blister
DR7 -0.10 dB -8.68 dB 4:05 05-Offer
DR6 -0.10 dB -7.97 dB 4:13 06-Unprodigal Daughter
DR9 -0.10 dB -11.32 dB 4:48 07-Simple Together
DR8 -0.38 dB -10.02 dB 4:28 08-Purgatorying
DR8 -0.10 dB -10.37 dB 4:08 09-Hands Clean (Acoustic)
––––––––––––––––––––––––––––––––––––––––

Number of tracks: 9
Official DR value: DR7

Samplerate: 44100 Hz
Channels: 2
Bits per sample: 16
Bitrate: 940 kbps
Codec: FLAC

[CUETools log; Date: 09.01.2017 12:07:31; Version: 2.1.4]
CD-Extra data track length 13:09:07.
[CTDB TOCID: u_N5mx5VWqlFzhUbROeRJ_9olD0-] found.
Track | CTDB Status
1 | (80/81) Accurately ripped
2 | (79/81) Accurately ripped
3 | (79/81) Accurately ripped
4 | (79/81) Accurately ripped
5 | (79/81) Accurately ripped
6 | (79/81) Accurately ripped
7 | (79/81) Accurately ripped
8 | (79/81) Accurately ripped
9 | (78/81) Accurately ripped
[AccurateRip ID: 000f70ba-007388b9-6d0d450a] found.
Track [ CRC | V2 ] Status
01 [5c096253|cb08f386] (017+020/111) Accurately ripped
02 [5ca7d417|a6b23ea4] (018+021/114) Accurately ripped
03 [08b62d52|2a73bfa2] (018+021/114) Accurately ripped
04 [0d65cdb3|73d6dc38] (018+021/113) Accurately ripped
05 [432c1ff7|be2ce5a5] (018+021/114) Accurately ripped
06 [19a4a8f9|4959e953] (018+021/113) Accurately ripped
07 [e5489a83|c4d12e2e] (018+021/114) Accurately ripped
08 [722d25b6|8ae7cf59] (018+021/113) Accurately ripped
09 [96f3aac9|e30fb19e] (018+021/113) Accurately ripped
Offsetted by -664:
01 [20c985b0] (005/111) Accurately ripped
02 [20afea41] (005/114) Accurately ripped
03 [a13aa6fa] (005/114) Accurately ripped
04 [ab04fff5] (005/113) Accurately ripped
05 [995e5eb7] (005/114) Accurately ripped
06 [0eb53a61] (004/113) Accurately ripped
07 [40368de3] (004/114) Accurately ripped
08 [3721b416] (004/113) Accurately ripped
09 [bccfa539] (005/113) Accurately ripped
Offsetted by 646:
01 [c78d1a2c] (003/111) Accurately ripped
02 [eb8c4996] (003/114) Accurately ripped
03 [d97ba721] (003/114) Accurately ripped
04 [ecefdc77] (003/113) Accurately ripped
05 [1b43b947] (003/114) Accurately ripped
06 [f163f67f] (003/113) Accurately ripped
07 [1c3da22b] (003/114) Accurately ripped
08 [e198aa9e] (003/113) Accurately ripped
09 [ee436f6d] (003/113) Accurately ripped
Offsetted by 787:
01 [cad28c5a] (036/111) Accurately ripped
02 [d257efc1] (037/114) Accurately ripped
03 [4da9f682] (037/114) Accurately ripped
04 [332b7978] (036/113) Accurately ripped
05 [30abf21f] (037/114) Accurately ripped
06 [825cf98c] (037/113) Accurately ripped
07 [25764917] (037/114) Accurately ripped
08 [71fd68ea] (037/113) Accurately ripped
09 [ef176bfb] (036/113) Accurately ripped

Track Peak [ CRC32 ] [W/O NULL] [ LOG ]
– 98,8 [D3FD35C5] [D89D4E7B]
01 96,9 [631B1696] [EC528778] CRC32
02 88,0 [4B98D096] [CC2D479C] CRC32
03 98,8 [10B01E64] [07737193] CRC32
04 98,8 [90C3C375] [CF3CC307] CRC32
05 98,8 [20ECAC61] [CDE1BF8F] CRC32
06 98,8 [FD8156FD] [18E24CB5] CRC32
07 98,8 [D4C5B274] [39F1257C] CRC32
08 95,7 [FE41A056] [67FD26F5] CRC32
09 98,8 [413DEB46] [ADAEF42F] CRC32

Alanis Morissette - Feast On Scraps (2002) [CD + DVD-9]

Tracklist DVD:

01. Opening
02. Baba
03. Right Through You
04. 21 Things I Want In A Lover
05. Hand In My Pocket
06. Purgatorying 1
07. Unprodigal Daughter
08. Flinch
09. All I Really Want
10. Precious Illusions
11. Sympathetic Character
12. Purgatorying 2
13. So Unsexy
14. Head Over Feet
15. Purgatorying 3
16. You Oughta Knowa
17. Hands Clean
18. Uninvited
19. Ironic
20. You Learn
21. That Particular Time
22. Thank You

Cherish Gallery
Feast on Scraps
Website

Title: 2002 - Feast On Scraps - DVD
Size: 7.41 Gb ( 7 766 124,00 KBytes ) - DVD-9
Enabled regions: 1, 2, 3, 4, 5, 6, 7, 8

VTS_01 :
Play Length: 02:19:52
Video: PAL 16:9 (720x576) VBR, Auto Letterboxed
Audio:
English (LinearPCM, 2 ch)
English (Dolby AC3, 6 ch)
Subtitles:
English
Francais
Espanol
Italiano
Deutsch


Alanis Morissette - Feast On Scraps (2002) [CD + DVD-9]

Alanis Morissette - Feast On Scraps (2002) [CD + DVD-9]

Alanis Morissette - Feast On Scraps (2002) [CD + DVD-9]

Alanis Morissette - Feast On Scraps (2002) [CD + DVD-9]

All thanks go to bocovp

Alanis Morissette in my Blog

Download Alanis Morissette - Feast On Scraps (2002):