Tags
Language
Tags

Alarius Ensemble, Nikolaus Harnoncourt, Concentus Musicus Wien - Virtuoso Violin Music of the 17th Century (1998)

Posted By: ArlegZ
Alarius Ensemble, Nikolaus Harnoncourt, Concentus Musicus Wien - Virtuoso Violin Music of the 17th Century (1998)

Alarius Ensemble, Nikolaus Harnoncourt, Concentus Musicus Wien - Virtuoso Violin Music of the 17th Century (1998)
EAC | FLAC | Image (Cue & Log) ~ 335 Mb | Total time: 62:00 | Scans included
Classical | Label: Teldec | # 3984-21801-2 | Recorded: 1968

The works of the early Baroque Italian composers featured on this CD all make some kind of use of the new virtuoso violin technique. Thus they enable us to understand how, as a result of untold experiments, a technique that was specifically suited to the violin gradually began to emerge.

Performer:
Alarius Ensemble (1-7)
Concentus Musicus Wien / Nikolaus Harnoncourt (8)

Track List:
Antonio Barthali (1605-1669)
01. Sonata à 2 Violini "Tausend Gulden" für 2 Violinen und Basso Continuo
Carlo Farina (1600-1639)
02. Sonata Tertia Detta La Moretta à 3 für 2 Violinen und Basso Continuo
Salomone Rossi (1570-1630)
03. Sonata In Dialogo Detta La Viene für 2 Violinen und Cembalo
Gian Paolo Cima (c1570-1630)
04. Sonata Per il Violino e Violone für Violine, Gambe und Orgel
05. Sonata à 3 für 2 Violinen und Basso Continuo
Dario Castello (c1590-c1658)
06. Sonata Quarta à 2 Soprani Für 2 Violinen und Basso Continuo
Francesco Cavalli (1602-1676)
07. Sonata à 3 für 2 Violinen und Basso Continuo
Carlo Farina
08. Capriccio Stravagante à 4


Exact Audio Copy V1.3 from 2. September 2016

EAC extraction logfile from 4. May 2019, 8:01

Alarius Ensemble, Concentus Musicus Wien / Virtuoso Violin Music of the 17th Century

Used drive : MATSHITABD-MLT UJ260AF Adapter: 1 ID: 0

Read mode : Secure
Utilize accurate stream : Yes
Defeat audio cache : Yes
Make use of C2 pointers : No

Read offset correction : 103
Overread into Lead-In and Lead-Out : No
Fill up missing offset samples with silence : Yes
Delete leading and trailing silent blocks : No
Null samples used in CRC calculations : Yes
Used interface : Native Win32 interface for Win NT & 2000

Used output format : User Defined Encoder
Selected bitrate : 128 kBit/s
Quality : High
Add ID3 tag : Yes
Command line compressor : C:\Program Files (x86)\Shntool\flac.exe
Additional command line options : -8 -V -T "ARTIST=%artist%" -T "TITLE=%title%" -T "ALBUM=%albumtitle%" -T "DATE=%year%" -T "TRACKNUMBER=%tracknr%" -T "GENRE=%genre%" -T "PERFORMER=%albuminterpret%" -T "COMPOSER=%composer%" %haslyrics%–tag-from-file=LYRICS="%lyricsfile%"%haslyrics% -T "ALBUMARTIST=%albumartist%" -T "DISCNUMBER=%cdnumber%" -T "TOTALDISCS=%totalcds%" -T "TOTALTRACKS=%numtracks%" -T "COMMENT=%comment%" %source% -o %dest%


TOC of the extracted CD

Track | Start | Length | Start sector | End sector
––––––––––––––––––––––––––––-
1 | 0:00.00 | 6:44.17 | 0 | 30316
2 | 6:44.17 | 13:02.70 | 30317 | 89036
3 | 19:47.12 | 5:05.38 | 89037 | 111949
4 | 24:52.50 | 3:48.12 | 111950 | 129061
5 | 28:40.62 | 2:56.00 | 129062 | 142261
6 | 31:36.62 | 5:59.10 | 142262 | 169196
7 | 37:35.72 | 5:48.18 | 169197 | 195314
8 | 43:24.15 | 18:36.05 | 195315 | 279019


Range status and errors

Selected range

Filename P:\EAC\Teldec3984-21801-2\Alarius Ensemble, Concentus Musicus Wien - Virtuoso Violin Music of the 17th Century.wav

Peak level 98.9 %
Extraction speed 2.6 X
Range quality 100.0 %
Test CRC 13134B7D
Copy CRC 13134B7D
Copy OK

No errors occurred


AccurateRip summary

Track 1 accurately ripped (confidence 3) [892A21F1] (AR v2)
Track 2 accurately ripped (confidence 3) [353995BB] (AR v2)
Track 3 accurately ripped (confidence 3) [AB4F1095] (AR v2)
Track 4 accurately ripped (confidence 3) [EE3AEF58] (AR v2)
Track 5 accurately ripped (confidence 3) [E3B1E616] (AR v2)
Track 6 accurately ripped (confidence 3) [5C77A296] (AR v2)
Track 7 accurately ripped (confidence 3) [616E963E] (AR v2)
Track 8 accurately ripped (confidence 3) [928EAD68] (AR v2)

All tracks accurately ripped

End of status report

–– CUETools DB Plugin V2.1.6

[CTDB TOCID: 8fbeiPPe6R2pgV6dlmKDoR4OGoM-] found
Submit result: 8fbeiPPe6R2pgV6dlmKDoR4OGoM- has been confirmed
Track | CTDB Status
1 | (3/4) Accurately ripped
2 | (3/4) Accurately ripped
3 | (3/4) Accurately ripped
4 | (3/4) Accurately ripped
5 | (3/4) Accurately ripped
6 | (3/4) Accurately ripped
7 | (3/4) Accurately ripped
8 | (2/4) Accurately ripped, or (1/4) differs in 1 samples @09:45:17


==== Log checksum E0E2CC2FE486447045179DE74F133B8D84D2B61799B51CF26FCAFCC66F1B97FE ====

Alarius Ensemble, Nikolaus Harnoncourt, Concentus Musicus Wien - Virtuoso Violin Music of the 17th Century (1998)

Thanks to the original releaser