Tags
Language
Tags

Albert Collins - Collins Mix: The Best Of (1993)

Posted By: Designol
Albert Collins - Collins Mix: The Best Of (1993)

Albert Collins - Collins Mix: The Best Of (1993)
EAC | FLAC | Image (Cue&Log) ~ 312 Mb | Mp3 (CBR320) ~ 121 Mb | Scans ~ 95 Mb
Modern Electric Texas Blues | Label: Virgin | # 7243 8 39097 2 8 | Time: 00:52:42

This provided fresh looks at 11 Collins classics, among them such epic numbers as "Don't Lose Your Cool," "Frosty," "Honey Hush" and "Tired Man." There were slow, wailing ballads with blistering solos, electrifying uptempo wailers with a great horn section answering Collins' phrases with their own bleats, and first-rate mastering and production. Guest stars included B.B. King, Branford Marsalis, Kim Wilson and Gary Moore, while Collins injected vitality into numbers he'd already made standards years ago. This set is a wonderful tribute to an incredible guitarist and musician.

Review by Ron Wynn, Allmusic.com

Albert Collins - Collins Mix: The Best Of (1993)



Tracklist:

01. There's Gotta Be A Change (03:39)
02. Honey Hush (04:17)
03. Mastercharge (05:48)
04. If Trouble Was Money (09:21)
05. Don't Lose Your Cool (03:24)
06. If You Love Me Like You Say (04:12)
07. Frosty (03:24)
08. Tired Man (05:01)
09. The Moon Is Full (04:36)
10. Collins Mix (02:58)
11. Same Old Thing (05:56)


Exact Audio Copy V1.0 beta 3 from 29. August 2011

Отчёт EAC об извлечении, выполненном 18. ноября 2014, 19:44

Albert Collins / Collins Mix: The Best Of

Дисковод: PLEXTOR DVDR PX-891SA Adapter: 6 ID: 0

Режим чтения : Достоверность
Использование точного потока : Да
Отключение кэша аудио : Да
Использование указателей C2 : Нет

Коррекция смещения при чтении : 6
Способность читать области Lead-in и Lead-out : Нет
Заполнение пропущенных сэмплов тишиной : Да
Удаление блоков с тишиной в начале и конце : Нет
При вычислениях CRC использовались нулевые сэмплы : Да
Интерфейс : Встроенный Win32-интерфейс для Win NT/2000

Выходной формат : Пользовательский кодировщик
Выбранный битрейт : 768 kBit/s
Качество : Высокий
Добавление ID3-тега : Нет
Утилита сжатия : C:\Program Files\Exact Audio Copy\FLAC\FLAC.EXE
Дополнительные параметры : -6 -V -T "ARTIST=%artist%" -T "TITLE=%title%" -T "ALBUM=%albumtitle%" -T "DATE=%year%" -T "TRACKNUMBER=%tracknr%" -T "GENRE=%genre%" -T "COMMENT=%comment%" -T "BAND=%albuminterpret%" -T "ALBUMARTIST=%albuminterpret%" -T "COMPOSER=%composer%" %haslyrics%–tag-from-file=LYRICS="%lyricsfile%"%haslyrics% -T "DISCNUMBER=%cdnumber%" -T "TOTALDISCS=%totalcds%" -T "TOTALTRACKS=%numtracks%" %hascover%–picture="%coverfile%"%hascover% %source% -o %dest%


TOC извлечённого CD

Трек | Старт | Длительность | Начальный сектор | Конечный сектор
––––––––––––––––––––––––––––––––––-
1 | 0:00.00 | 3:39.58 | 0 | 16482
2 | 3:39.58 | 4:17.50 | 16483 | 35807
3 | 7:57.33 | 5:48.62 | 35808 | 61969
4 | 13:46.20 | 9:21.05 | 61970 | 104049
5 | 23:07.25 | 3:24.63 | 104050 | 119412
6 | 26:32.13 | 4:12.32 | 119413 | 138344
7 | 30:44.45 | 3:24.15 | 138345 | 153659
8 | 34:08.60 | 5:01.35 | 153660 | 176269
9 | 39:10.20 | 4:36.58 | 176270 | 197027
10 | 43:47.03 | 2:58.30 | 197028 | 210407
11 | 46:45.33 | 5:56.25 | 210408 | 237132


Характеристики диапазона извлечения и сообщения об ошибках

Выбранный диапазон

Имя файла J:\ORIGINAL CD\Albert Collins - Collins Mix The Best Of - 1993 - 52'44''\Albert Collins - Collins Mix- The Best Of.wav

Пиковый уровень 97.7 %
Скорость извлечения 8.3 X
Качество диапазона 100.0 %
CRC теста 8D4A1A48
CRC копии 8D4A1A48
Копирование… OK

Ошибок не произошло

Конец отчёта

–– CUETools DB Plugin V2.1.3

[CTDB TOCID: FA3yRW8zyrc0oRLkBOfq2A6.o_A-] found, Submit result: FA3yRW8zyrc0oRLkBOfq2A6.o_A- has been confirmed
[30aef63c] (33/35) Accurately ripped
[38f4ef9c] (01/35) Differs in 179 samples @08:06:11
[ea437b39] (01/35) No match
You can use CUETools to repair this rip.


==== Контрольная сумма отчёта 7198BD45D2889F926F5FBED05F86C8F9E6E3048E947170058453C420FC6FA815 ====

[CUETools log; Date: 20.12.2014 4:02:59; Version: 2.1.4]
[CTDB TOCID: FA3yRW8zyrc0oRLkBOfq2A6.o_A-] found.
Track | CTDB Status
1 | (14/14) Accurately ripped
2 | (13/14) Accurately ripped
3 | (12/14) Accurately ripped, or (1/14) differs in 179 samples @00:08:53
4 | (14/14) Accurately ripped
5 | (14/14) Accurately ripped
6 | (14/14) Accurately ripped
7 | (14/14) Accurately ripped
8 | (14/14) Accurately ripped
9 | (14/14) Accurately ripped
10 | (14/14) Accurately ripped
11 | (14/14) Accurately ripped
[AccurateRip ID: 00162248-00bf5660-9f0c590b] found.
Track [ CRC | V2 ] Status
01 [9e3c6def|14436a4c] (12+12/47) Accurately ripped
02 [cca5e9a2|20a6a219] (12+11/46) Accurately ripped
03 [77c88ec5|39440616] (12+10/45) Accurately ripped
04 [7a6b50c4|8e507723] (12+11/46) Accurately ripped
05 [23f0dddf|67e1d7a7] (11+10/43) Accurately ripped
06 [9b0a4595|9e396fcc] (12+11/46) Accurately ripped
07 [ea4f37cd|4d2387de] (12+12/47) Accurately ripped
08 [7d1580f7|1d6963db] (11+12/45) Accurately ripped
09 [417df405|81df7cb9] (12+12/47) Accurately ripped
10 [db1195ea|3c9ff135] (12+12/47) Accurately ripped
11 [7ae00440|7b25ad71] (12+11/46) Accurately ripped
Offsetted by 8:
01 [90949775] (13/47) Accurately ripped
02 [19d34380] (13/46) Accurately ripped
03 [546748c7] (13/45) Accurately ripped
04 [0034d25c] (13/46) Accurately ripped
05 [cb1c1dd9] (12/43) Accurately ripped
06 [dfc8ba74] (13/46) Accurately ripped
07 [52f6b5b4] (13/47) Accurately ripped
08 [23640a94] (12/45) Accurately ripped
09 [c7d75f36] (13/47) Accurately ripped
10 [28544b26] (13/47) Accurately ripped
11 [4012a698] (14/46) Accurately ripped

Track Peak [ CRC32 ] [W/O NULL] [ LOG ]
– 97,7 [8D4A1A48] [940B16B0] CRC32
01 97,7 [D0BCF436] [E0FE162E]
02 90,7 [EA86C9BE] [C6ABB84F]
03 97,7 [22FC158F] [AAAF6BCE]
04 79,4 [B5CE0E3A] [AB6994C7]
05 97,7 [86096FA2] [346A0971]
06 97,1 [D38BB913] [C6100F96]
07 96,3 [0DC4CA1C] [FF410675]
08 97,7 [8927ACAB] [ADA638A1]
09 97,7 [4D97E990] [E162379F]
10 97,7 [8F248F62] [C3549B6B]
11 97,7 [4DFCD8C7] [31585A5D]

foobar2000 1.2 / Dynamic Range Meter 1.1.1
log date: 2014-12-20 03:37:58

––––––––––––––––––––––––––––––––––––––––
Analyzed: Albert Collins / Collins Mix: The Best Of
––––––––––––––––––––––––––––––––––––––––

DR Peak RMS Duration Track
––––––––––––––––––––––––––––––––––––––––
DR15 -0.20 dB -16.80 dB 3:40 01-There's Gotta Be A Change
DR13 -0.84 dB -15.92 dB 4:18 02-Honey Hush
DR13 -0.20 dB -15.17 dB 5:49 03-Mastercharge
DR15 -2.00 dB -18.79 dB 9:21 04-If Trouble Was Money
DR15 -0.20 dB -15.88 dB 3:25 05-Don't Lose Your Cool
DR13 -0.25 dB -15.65 dB 4:12 06-If You Love Me Like You Say
DR15 -0.32 dB -16.17 dB 3:24 07-Frosty
DR14 -0.20 dB -17.42 dB 5:01 08-Tired Man
DR16 -0.20 dB -17.77 dB 4:37 09-The Moon Is Full
DR13 -0.20 dB -15.32 dB 2:58 10-Collins Mix
DR13 -0.20 dB -16.86 dB 5:56 11-Same Old Thing
––––––––––––––––––––––––––––––––––––––––

Number of tracks: 11
Official DR value: DR14

Samplerate: 44100 Hz
Channels: 2
Bits per sample: 16
Bitrate: 828 kbps
Codec: FLAC
================================================================================

Albert Collins - Collins Mix: The Best Of (1993)

Albert Collins - Collins Mix: The Best Of (1993)

All thanks to original releaser

More interesting music in My Blog