Subcategories
Please register here if you want to download anything!

If domain in your address bar is different from the list below
PLEASE LEAVE THAT SITE IMMEDIATELY
❗IT'S A DANGEROUS FAKE❗



Spicy Magazines for Men! ;-)

Alexander O'Neal - Greatest Hits (2004) [Re-Up]

Posted By: Designol
Alexander O'Neal - Greatest Hits (2004) [Re-Up]

Alexander O'Neal - Greatest Hits (2004)
EAC | FLAC | Tracks (Cue&Log) ~ 575 Mb | Mp3 (CBR320) ~ 185 Mb
Label: Virgin/Tabu | # 72435-78502-2-3 | Time: 01:17:21 | Scans included
Adult Contemporary R&B, Quiet Storm

Some of the advantages that 2004's Greatest Hits has over 1995's The Best of Alexander O'Neal are apparent from the quickest of glances. The most obvious difference is the quantity of songs: while The Best of Alexander O'Neal functioned as a suitable introduction covering the singer's first three albums, this disc features five more sensibly picked cuts. The most important inclusion here, beyond all the essential chart hits ("If You Were Here Tonight," "Criticize," "Fake," "Never Knew Love Like This," "All True Man," "What Is This Thing Called Love?"), is "Saturday Love," the magnificent 1986 single previously bound to duet partner Cherrelle's catalog. Alexander O'Neal (1985), Hearsay (1986), and All True Man (1991) are all worth owning, but this compilation will do for those on a budget.

Review by Andy Kellman, Allmusic.com

Alexander O'Neal at Allmusic
Alexander O'Neal at Wiki

Tracklist:

01. Never Knew Love Like This (05:16)
02. Innocent - Alex 9000 - Innocent II (Medley) (10:33)
03. Fake (04:02)
04. All True Man (05:05)
05. Criticize (Single Version) (04:04)
06. Saturday Love (Alexander O'Neal & Cherrelle) (05:01)
07. If You Were Here Tonight (06:05)
08. Hearsay '89 (03:42)
09. (What Can I Say) To Make You Love Me (04:31)
10. The Lovers (04:44)
11. What's Missing (05:44)
12. A Broken Heart Can Mend (03:45)
13. What Is This Thing Called Love (06:07)
14. You Were Meant To Be My Lady (Not My Girl) (Single Version) (04:12)
15. Love Makes No Sense (Single Version) (04:23)


Exact Audio Copy V1.0 beta 3 from 29. August 2011

EAC extraction logfile from 25. September 2014, 21:35

Alexander O'Neal / Greatest Hits

Used drive : HL-DT-STDVDRAM GSA-T50L Adapter: 1 ID: 0

Read mode : Secure
Utilize accurate stream : Yes
Defeat audio cache : No
Make use of C2 pointers : No

Read offset correction : 667
Overread into Lead-In and Lead-Out : No
Fill up missing offset samples with silence : Yes
Delete leading and trailing silent blocks : No
Null samples used in CRC calculations : Yes
Used interface : Native Win32 interface for Win NT & 2000
Gap handling : Appended to previous track

Used output format : User Defined Encoder
Selected bitrate : 1024 kBit/s
Quality : High
Add ID3 tag : No
Command line compressor : C:\Program Files\Exact Audio Copy\Flac\flac.exe
Additional command line options : -8 -V -T "ARTIST=%artist%" -T "TITLE=%title%" -T "ALBUM=%albumtitle%" -T "DATE=%year%" -T "TRACKNUMBER=%tracknr%" -T "GENRE=%genre%" -T "PERFORMER=%albuminterpret%" -T "COMPOSER=%composer%" %haslyrics%–tag-from-file=LYRICS="%lyricsfile%"%haslyrics% -T "ALBUMARTIST=%albumartist%" -T "DISCNUMBER=%cdnumber%" -T "TOTALDISCS=%totalcds%" -T "TOTALTRACKS=%numtracks%" -T "COMMENT=%comment%" %source% -o %dest%


TOC of the extracted CD

Track | Start | Length | Start sector | End sector
––––––––––––––––––––––––––––-
1 | 0:00.00 | 5:16.12 | 0 | 23711
2 | 5:16.12 | 10:33.43 | 23712 | 71229
3 | 15:49.55 | 4:02.30 | 71230 | 89409
4 | 19:52.10 | 5:05.02 | 89410 | 112286
5 | 24:57.12 | 4:04.35 | 112287 | 130621
6 | 29:01.47 | 5:01.63 | 130622 | 153259
7 | 34:03.35 | 6:05.50 | 153260 | 180684
8 | 40:09.10 | 3:42.37 | 180685 | 197371
9 | 43:51.47 | 4:31.23 | 197372 | 217719
10 | 48:22.70 | 4:44.45 | 217720 | 239064
11 | 53:07.40 | 5:44.47 | 239065 | 264911
12 | 58:52.12 | 3:45.33 | 264912 | 281819
13 | 62:37.45 | 6:07.65 | 281820 | 309409
14 | 68:45.35 | 4:12.52 | 309410 | 328361
15 | 72:58.12 | 4:23.33 | 328362 | 348119


Track 1

Filename C:\FLAC\01 Never Knew Love Like This.wav

Pre-gap length 0:00:02.00

Peak level 97.7 %
Extraction speed 3.3 X
Track quality 100.0 %
Test CRC B8D4B0F0
Copy CRC B8D4B0F0
Accurately ripped (confidence 15) [296119FF] (AR v2)
Copy OK

Track 2

Filename C:\FLAC\02 Innocent - Alex 9000 - Innocent II (Medley).wav

Pre-gap length 0:00:01.69

Peak level 97.7 %
Extraction speed 5.1 X
Track quality 100.0 %
Test CRC BDB28BE0
Copy CRC BDB28BE0
Accurately ripped (confidence 15) [C25AFC67] (AR v2)
Copy OK

Track 3

Filename C:\FLAC\03 Fake.wav

Pre-gap length 0:00:02.24

Peak level 97.7 %
Extraction speed 5.8 X
Track quality 100.0 %
Test CRC 42553D58
Copy CRC 42553D58
Accurately ripped (confidence 16) [10FFA934] (AR v2)
Copy OK

Track 4

Filename C:\FLAC\04 All True Man.wav

Pre-gap length 0:00:02.73

Peak level 95.5 %
Extraction speed 6.1 X
Track quality 100.0 %
Test CRC F44CF2F4
Copy CRC F44CF2F4
Accurately ripped (confidence 16) [5ED9CCED] (AR v2)
Copy OK

Track 5

Filename C:\FLAC\05 Criticize (Single Version).wav

Pre-gap length 0:00:02.56

Peak level 94.4 %
Extraction speed 6.5 X
Track quality 100.0 %
Test CRC 5BD3EAA9
Copy CRC 5BD3EAA9
Accurately ripped (confidence 16) [0176E374] (AR v2)
Copy OK

Track 6

Filename C:\FLAC\06 Saturday Love (Alexander O'Neal & Cherrelle).wav

Pre-gap length 0:00:02.00

Peak level 95.5 %
Extraction speed 6.8 X
Track quality 100.0 %
Test CRC AC528D6A
Copy CRC AC528D6A
Accurately ripped (confidence 16) [BE920A28] (AR v2)
Copy OK

Track 7

Filename C:\FLAC\07 If You Were Here Tonight.wav

Pre-gap length 0:00:01.86

Peak level 97.7 %
Extraction speed 7.1 X
Track quality 100.0 %
Test CRC 5B8886C8
Copy CRC 5B8886C8
Accurately ripped (confidence 16) [E4F060E3] (AR v2)
Copy OK

Track 8

Filename C:\FLAC\08 Hearsay '89.wav

Pre-gap length 0:00:01.93

Peak level 97.7 %
Extraction speed 7.5 X
Track quality 100.0 %
Test CRC C4B8DE29
Copy CRC C4B8DE29
Accurately ripped (confidence 16) [CE6DC2B5] (AR v2)
Copy OK

Track 9

Filename C:\FLAC\09 (What Can I Say) To Make You Love Me.wav

Pre-gap length 0:00:02.22

Peak level 97.7 %
Extraction speed 7.8 X
Track quality 100.0 %
Test CRC 64C47477
Copy CRC 64C47477
Accurately ripped (confidence 16) [97DD88B3] (AR v2)
Copy OK

Track 10

Filename C:\FLAC\10 The Lovers.wav

Pre-gap length 0:00:01.90

Peak level 95.5 %
Extraction speed 8.0 X
Track quality 100.0 %
Test CRC 67A0F705
Copy CRC 67A0F705
Accurately ripped (confidence 16) [2BD6A3D5] (AR v2)
Copy OK

Track 11

Filename C:\FLAC\11 What's Missing.wav

Pre-gap length 0:00:01.97

Peak level 94.4 %
Extraction speed 8.1 X
Track quality 99.9 %
Test CRC 6BF8A5BD
Copy CRC 6BF8A5BD
Accurately ripped (confidence 16) [F4895F6E] (AR v2)
Copy OK

Track 12

Filename C:\FLAC\12 A Broken Heart Can Mend.wav

Pre-gap length 0:00:01.56

Peak level 95.5 %
Extraction speed 8.2 X
Track quality 99.9 %
Test CRC DC55DF87
Copy CRC DC55DF87
Accurately ripped (confidence 15) [C817BE4D] (AR v2)
Copy OK

Track 13

Filename C:\FLAC\13 What Is This Thing Called Love.wav

Pre-gap length 0:00:01.60

Peak level 95.5 %
Extraction speed 8.6 X
Track quality 99.9 %
Test CRC BBB1CD68
Copy CRC BBB1CD68
Accurately ripped (confidence 15) [EE51264A] (AR v2)
Copy OK

Track 14

Filename C:\FLAC\14 You Were Meant To Be My Lady (Not My Girl) (Single Version).wav

Pre-gap length 0:00:01.97

Peak level 97.7 %
Extraction speed 9.1 X
Track quality 100.0 %
Test CRC F8AFE210
Copy CRC F8AFE210
Accurately ripped (confidence 16) [F89B5DC1] (AR v2)
Copy OK

Track 15

Filename C:\FLAC\15 Love Makes No Sense (Single Version).wav

Pre-gap length 0:00:01.73

Peak level 97.7 %
Extraction speed 4.7 X
Track quality 100.0 %
Test CRC EF113587
Copy CRC EF113587
Accurately ripped (confidence 14) [4E623917] (AR v2)
Copy OK


All tracks accurately ripped

No errors occurred

End of status report

–– CUETools DB Plugin V2.1.3

[CTDB TOCID: WEXF9QRfb_3XBRmRHLF87UN6QCg-] found, Submit result: WEXF9QRfb_3XBRmRHLF87UN6QCg- has been confirmed
[c83cbf77] (19/21) Accurately ripped
[00bab209] (01/21) No match
[bb9b18b0] (01/21) No match


==== Log checksum 2AE956DDA6DC6F8A57EC64137CF7C9ED3D1C88AEEC3172160696CEFE1BA66CD1 ====

––––––––––––––––––––––––––––––

Exact Audio Copy V1.0 beta 3 from 29. August 2011

EAC extraction logfile from 25. September 2014, 21:35

Alexander O'Neal / Greatest Hits

Used drive : HL-DT-STDVDRAM GSA-T50L Adapter: 1 ID: 0

Read mode : Secure
Utilize accurate stream : Yes
Defeat audio cache : No
Make use of C2 pointers : No

Read offset correction : 667
Overread into Lead-In and Lead-Out : No
Fill up missing offset samples with silence : Yes
Delete leading and trailing silent blocks : No
Null samples used in CRC calculations : Yes
Used interface : Native Win32 interface for Win NT & 2000
Gap handling : Appended to previous track

Used output format : User Defined Encoder
Selected bitrate : 1024 kBit/s
Quality : High
Add ID3 tag : No
Command line compressor : C:\Program Files\Exact Audio Copy\Flac\flac.exe
Additional command line options : -8 -V -T "ARTIST=%artist%" -T "TITLE=%title%" -T "ALBUM=%albumtitle%" -T "DATE=%year%" -T "TRACKNUMBER=%tracknr%" -T "GENRE=%genre%" -T "PERFORMER=%albuminterpret%" -T "COMPOSER=%composer%" %haslyrics%–tag-from-file=LYRICS="%lyricsfile%"%haslyrics% -T "ALBUMARTIST=%albumartist%" -T "DISCNUMBER=%cdnumber%" -T "TOTALDISCS=%totalcds%" -T "TOTALTRACKS=%numtracks%" -T "COMMENT=%comment%" %source% -o %dest%


TOC of the extracted CD

Track | Start | Length | Start sector | End sector
––––––––––––––––––––––––––––-
1 | 0:00.00 | 5:16.12 | 0 | 23711
2 | 5:16.12 | 10:33.43 | 23712 | 71229
3 | 15:49.55 | 4:02.30 | 71230 | 89409
4 | 19:52.10 | 5:05.02 | 89410 | 112286
5 | 24:57.12 | 4:04.35 | 112287 | 130621
6 | 29:01.47 | 5:01.63 | 130622 | 153259
7 | 34:03.35 | 6:05.50 | 153260 | 180684
8 | 40:09.10 | 3:42.37 | 180685 | 197371
9 | 43:51.47 | 4:31.23 | 197372 | 217719
10 | 48:22.70 | 4:44.45 | 217720 | 239064
11 | 53:07.40 | 5:44.47 | 239065 | 264911
12 | 58:52.12 | 3:45.33 | 264912 | 281819
13 | 62:37.45 | 6:07.65 | 281820 | 309409
14 | 68:45.35 | 4:12.52 | 309410 | 328361
15 | 72:58.12 | 4:23.33 | 328362 | 348119


Track 1

Filename C:\FLAC\01 Never Knew Love Like This.wav

Pre-gap length 0:00:02.00

Peak level 97.7 %
Extraction speed 3.3 X
Track quality 100.0 %
Test CRC B8D4B0F0
Copy CRC B8D4B0F0
Accurately ripped (confidence 15) [296119FF] (AR v2)
Copy OK

Track 2

Filename C:\FLAC\02 Innocent - Alex 9000 - Innocent II (Medley).wav

Pre-gap length 0:00:01.69

Peak level 97.7 %
Extraction speed 5.1 X
Track quality 100.0 %
Test CRC BDB28BE0
Copy CRC BDB28BE0
Accurately ripped (confidence 15) [C25AFC67] (AR v2)
Copy OK

Track 3

Filename C:\FLAC\03 Fake.wav

Pre-gap length 0:00:02.24

Peak level 97.7 %
Extraction speed 5.8 X
Track quality 100.0 %
Test CRC 42553D58
Copy CRC 42553D58
Accurately ripped (confidence 16) [10FFA934] (AR v2)
Copy OK

Track 4

Filename C:\FLAC\04 All True Man.wav

Pre-gap length 0:00:02.73

Peak level 95.5 %
Extraction speed 6.1 X
Track quality 100.0 %
Test CRC F44CF2F4
Copy CRC F44CF2F4
Accurately ripped (confidence 16) [5ED9CCED] (AR v2)
Copy OK

Track 5

Filename C:\FLAC\05 Criticize (Single Version).wav

Pre-gap length 0:00:02.56

Peak level 94.4 %
Extraction speed 6.5 X
Track quality 100.0 %
Test CRC 5BD3EAA9
Copy CRC 5BD3EAA9
Accurately ripped (confidence 16) [0176E374] (AR v2)
Copy OK

Track 6

Filename C:\FLAC\06 Saturday Love (Alexander O'Neal & Cherrelle).wav

Pre-gap length 0:00:02.00

Peak level 95.5 %
Extraction speed 6.8 X
Track quality 100.0 %
Test CRC AC528D6A
Copy CRC AC528D6A
Accurately ripped (confidence 16) [BE920A28] (AR v2)
Copy OK

Track 7

Filename C:\FLAC\07 If You Were Here Tonight.wav

Pre-gap length 0:00:01.86

Peak level 97.7 %
Extraction speed 7.1 X
Track quality 100.0 %
Test CRC 5B8886C8
Copy CRC 5B8886C8
Accurately ripped (confidence 16) [E4F060E3] (AR v2)
Copy OK

Track 8

Filename C:\FLAC\08 Hearsay '89.wav

Pre-gap length 0:00:01.93

Peak level 97.7 %
Extraction speed 7.5 X
Track quality 100.0 %
Test CRC C4B8DE29
Copy CRC C4B8DE29
Accurately ripped (confidence 16) [CE6DC2B5] (AR v2)
Copy OK

Track 9

Filename C:\FLAC\09 (What Can I Say) To Make You Love Me.wav

Pre-gap length 0:00:02.22

Peak level 97.7 %
Extraction speed 7.8 X
Track quality 100.0 %
Test CRC 64C47477
Copy CRC 64C47477
Accurately ripped (confidence 16) [97DD88B3] (AR v2)
Copy OK

Track 10

Filename C:\FLAC\10 The Lovers.wav

Pre-gap length 0:00:01.90

Peak level 95.5 %
Extraction speed 8.0 X
Track quality 100.0 %
Test CRC 67A0F705
Copy CRC 67A0F705
Accurately ripped (confidence 16) [2BD6A3D5] (AR v2)
Copy OK

Track 11

Filename C:\FLAC\11 What's Missing.wav

Pre-gap length 0:00:01.97

Peak level 94.4 %
Extraction speed 8.1 X
Track quality 99.9 %
Test CRC 6BF8A5BD
Copy CRC 6BF8A5BD
Accurately ripped (confidence 16) [F4895F6E] (AR v2)
Copy OK

Track 12

Filename C:\FLAC\12 A Broken Heart Can Mend.wav

Pre-gap length 0:00:01.56

Peak level 95.5 %
Extraction speed 8.2 X
Track quality 99.9 %
Test CRC DC55DF87
Copy CRC DC55DF87
Accurately ripped (confidence 15) [C817BE4D] (AR v2)
Copy OK

Track 13

Filename C:\FLAC\13 What Is This Thing Called Love.wav

Pre-gap length 0:00:01.60

Peak level 95.5 %
Extraction speed 8.6 X
Track quality 99.9 %
Test CRC BBB1CD68
Copy CRC BBB1CD68
Accurately ripped (confidence 15) [EE51264A] (AR v2)
Copy OK

Track 14

Filename C:\FLAC\14 You Were Meant To Be My Lady (Not My Girl) (Single Version).wav

Pre-gap length 0:00:01.97

Peak level 97.7 %
Extraction speed 9.1 X
Track quality 100.0 %
Test CRC F8AFE210
Copy CRC F8AFE210
Accurately ripped (confidence 16) [F89B5DC1] (AR v2)
Copy OK

Track 15

Filename C:\FLAC\15 Love Makes No Sense (Single Version).wav

Pre-gap length 0:00:01.73

Peak level 97.7 %
Extraction speed 4.7 X
Track quality 100.0 %
Test CRC EF113587
Copy CRC EF113587
Accurately ripped (confidence 14) [4E623917] (AR v2)
Copy OK


All tracks accurately ripped

No errors occurred

End of status report

–– CUETools DB Plugin V2.1.3

[CTDB TOCID: WEXF9QRfb_3XBRmRHLF87UN6QCg-] found, Submit result: WEXF9QRfb_3XBRmRHLF87UN6QCg- has been confirmed
[c83cbf77] (19/21) Accurately ripped
[00bab209] (01/21) No match
[bb9b18b0] (01/21) No match


==== Log checksum 2AE956DDA6DC6F8A57EC64137CF7C9ED3D1C88AEEC3172160696CEFE1BA66CD1 ====

foobar2000 1.2 / Dynamic Range Meter 1.1.1
log date: 2014-10-18 20:59:46

––––––––––––––––––––––––––––––––––––––––
Analyzed: Alexander O'Neal / Greatest Hits
––––––––––––––––––––––––––––––––––––––––

DR Peak RMS Duration Track
––––––––––––––––––––––––––––––––––––––––
DR8 -0.20 dB -10.33 dB 5:16 01-Never Knew Love Like This
DR8 -0.20 dB -9.65 dB 10:34 02-Innocent - Alex 9000 - Innocent II (Medley)
DR9 -0.20 dB -10.51 dB 4:02 03-Fake
DR8 -0.40 dB -10.61 dB 5:05 04-All True Man
DR8 -0.50 dB -10.61 dB 4:04 05-Criticize (Single Version)
DR9 -0.40 dB -10.95 dB 5:02 06-Saturday Love (Alexander O'Neal & Cherrelle)
DR10 -0.20 dB -11.57 dB 6:06 07-If You Were Here Tonight
DR9 -0.20 dB -10.61 dB 3:42 08-Hearsay '89
DR9 -0.20 dB -10.72 dB 4:31 09-(What Can I Say) To Make You Love Me
DR8 -0.40 dB -10.44 dB 4:45 10-The Lovers
DR8 -0.50 dB -9.98 dB 5:45 11-What's Missing
DR8 -0.40 dB -9.64 dB 3:45 12-A Broken Heart Can Mend
DR9 -0.40 dB -11.08 dB 6:08 13-What Is This Thing Called Love
DR9 -0.20 dB -10.58 dB 4:13 14-You Were Meant To Be My Lady (Not My Girl) (Single Version)
DR10 -0.20 dB -11.09 dB 4:23 15-Love Makes No Sense (Single Version)
––––––––––––––––––––––––––––––––––––––––

Number of tracks: 15
Official DR value: DR9

Samplerate: 44100 Hz
Channels: 2
Bits per sample: 16
Bitrate: 1000 kbps
Codec: FLAC
================================================================================

Alexander O'Neal - Greatest Hits (2004) [Re-Up]

Alexander O'Neal - Greatest Hits (2004) [Re-Up]

All thanks to original releaser - only1joe

More interesting music in My Blog