Subcategories

Aline Zylberajch - Domenico Scarlatti: Sonates (2005)

Posted By: Designol
Aline Zylberajch - Domenico Scarlatti: Sonates (2005)

Aline Zylberajch - Domenico Scarlatti: Sonates (2005)
EAC | FLAC | Image (Cue&Log) ~ 239 Mb | Mp3 (CBR320) ~ 163 Mb | Scans included
Genre: Classical | Label: Ambronay | # AMY002 | Time: 01:05:13

Reflecting the exceptional sound-world of Ambronay Abbey, Ambronay's CDs initiate musical experiences opening up a world of imagination and emotions. 'A new invention for Maria Barbara? The Queen of Spain and Portugal ordered from Bratolomeo Cristofori, creator of the pianoforte, five of his percious instruments for her music master, Domenico Scarlatti. Denzil Wraight, pre-eminent specialist of early Italian keyboards, has built the magnificent 56-note single-manual Cristofori-Ferrini instrument used on this recording - from which Aline Zylberajch unfolds a wealth of colours and shades hitherto unknown. An aesthetic, emotional revelation.

A extraordinary instrument reveals to us the secretworld of Scarlatti. An important chapter is finally opened; that of the performance of Scarlatti at the pianoforte.

Review by G. Naulleau, Diapason, January 2005

Aline Zylberajch - Domenico Scarlatti: Sonates (2005)



Aline Zylberajch - Domenico Scarlatti: Sonates (2005)



Tracklist:

Domenico Scarlatti (1685-1757)

01. Sonata in F minor, K 481 (4:04)
02. Sonata in F minor, K 386 (2:43)
03. Sonata in D major, K 282 (4:14)
04. Sonata in D minor, K 213 (4:02)
05. Sonata in G minor, K 43 (2:42)
06. Sonata in C major, K 308 (4:10)
07. Sonata in C major, K 49 (5:00)
08. Sonata in C major, K 133 (3:44)
09. Sonata in G minor, K 93 (4:16)
10. Sonata in D major, K 45 (3:24)
11. Sonata in D minor, K 32 (1:36)
12. Sonata in D minor, K 517 (2:59)
13. Sonata in G major, K 144 (5:26)
14. Sonata in G major, K 391 (2:56)
15. Sonata in D major, K 490 (5:05)
16. Sonata in A major, K 220 (2:27)
17. Sonata in E major, K 216 (2:58)
18. Sonata in E minor, K 291 (3:27)


Exact Audio Copy V1.0 beta 3 from 29. August 2011

EAC extraction logfile from 13. February 2013, 12:30

Aline Zylberajch / Scarlatti - Sonates

Used drive : HL-DT-STDVDRRW GWA-4164B Adapter: 5 ID: 0

Read mode : Secure
Utilize accurate stream : Yes
Defeat audio cache : Yes
Make use of C2 pointers : No

Read offset correction : 102
Overread into Lead-In and Lead-Out : No
Fill up missing offset samples with silence : Yes
Delete leading and trailing silent blocks : No
Null samples used in CRC calculations : Yes
Used interface : Native Win32 interface for Win NT & 2000

Used output format : User Defined Encoder
Selected bitrate : 896 kBit/s
Quality : High
Add ID3 tag : No
Command line compressor : C:\Program Files\Exact Audio Copy\FLAC\FLAC.EXE
Additional command line options : -V -8 %source%


TOC of the extracted CD

Track | Start | Length | Start sector | End sector
––––––––––––––––––––––––––––-
1 | 0:00.00 | 4:03.62 | 0 | 18286
2 | 4:03.62 | 2:43.17 | 18287 | 30528
3 | 6:47.04 | 4:13.64 | 30529 | 49567
4 | 11:00.68 | 4:02.36 | 49568 | 67753
5 | 15:03.29 | 2:41.69 | 67754 | 79897
6 | 17:45.23 | 4:10.05 | 79898 | 98652
7 | 21:55.28 | 5:00.09 | 98653 | 121161
8 | 26:55.37 | 3:43.43 | 121162 | 137929
9 | 30:39.05 | 4:15.71 | 137930 | 157125
10 | 34:55.01 | 3:24.23 | 157126 | 172448
11 | 38:19.24 | 1:35.72 | 172449 | 179645
12 | 39:55.21 | 2:58.58 | 179646 | 193053
13 | 42:54.04 | 5:26.29 | 193054 | 217532
14 | 48:20.33 | 2:56.20 | 217533 | 230752
15 | 51:16.53 | 5:04.69 | 230753 | 253621
16 | 56:21.47 | 2:26.57 | 253622 | 264628
17 | 58:48.29 | 2:57.58 | 264629 | 277961
18 | 61:46.12 | 3:27.18 | 277962 | 293504


Range status and errors

Selected range

Filename C:\temp\Domenico Scarlatti - Sonates - Zylberajch\Scarlatti - Sonates.wav

Peak level 62.1 %
Extraction speed 2.6 X
Range quality 99.9 %
Test CRC 7B4FCDBC
Copy CRC 7B4FCDBC
Copy OK

No errors occurred

End of status report

==== Log checksum 01C2270C15547A11B063C96BF8112A80A332C11AEB4D4346CB4B09C91C664E21 ====

[CUETools log; Date: 20.12.2018 14:08:21; Version: 2.1.4]
[CTDB TOCID: XkeHNu_5TpfdYt.lf6GDcKFq8m4-] found.
Track | CTDB Status
1 | (16/16) Accurately ripped
2 | (16/16) Accurately ripped
3 | (16/16) Accurately ripped
4 | (16/16) Accurately ripped
5 | (16/16) Accurately ripped
6 | (16/16) Accurately ripped
7 | (16/16) Accurately ripped
8 | (16/16) Accurately ripped
9 | (15/16) Accurately ripped
10 | (16/16) Accurately ripped
11 | (16/16) Accurately ripped
12 | (15/16) Accurately ripped
13 | (15/16) Accurately ripped
14 | (15/16) Accurately ripped
15 | (16/16) Accurately ripped
16 | (16/16) Accurately ripped
17 | (16/16) Accurately ripped
18 | (14/16) Accurately ripped
[AccurateRip ID: 002b659c-0241214b-fb0f4912] found.
Track [ CRC | V2 ] Status
01 [2ff34470|ce4528d2] (06+11/17) Accurately ripped
02 [88ab263d|a161a510] (06+11/17) Accurately ripped
03 [f144a160|de038621] (06+12/18) Accurately ripped
04 [6b08d0c2|acedf78e] (06+12/18) Accurately ripped
05 [011d1255|ab69931d] (06+12/18) Accurately ripped
06 [dc24d911|d333b710] (06+12/18) Accurately ripped
07 [04663bef|128d7cf9] (06+12/18) Accurately ripped
08 [7dc79924|f9a0a7c6] (06+12/18) Accurately ripped
09 [1626710a|620426eb] (06+12/18) Accurately ripped
10 [cab98b6a|fce208c8] (05+12/17) Accurately ripped
11 [43359e26|26d13735] (05+12/17) Accurately ripped
12 [b4a37691|c4af0413] (05+12/17) Accurately ripped
13 [4b878a51|096778d7] (05+12/17) Accurately ripped
14 [33dc9672|746dc235] (05+12/17) Accurately ripped
15 [47007a0c|fcd9c330] (06+12/18) Accurately ripped
16 [792e00cd|8953104a] (06+12/18) Accurately ripped
17 [c843fae8|dd805695] (06+12/18) Accurately ripped
18 [3379ca6b|fad45290] (05+12/17) Accurately ripped

Track Peak [ CRC32 ] [W/O NULL] [ LOG ]
– 62,1 [7B4FCDBC] [AA8B4D48] CRC32
01 13,5 [36D4C757] [C36DA0A7]
02 42,5 [7F7CB130] [8FDA1912]
03 43,4 [E27346F0] [2358E09F]
04 27,0 [6B29E164] [C436E2EE]
05 39,6 [84214A8A] [4AE98A87]
06 13,6 [A16FB00B] [FC056E4A]
07 44,2 [3DC6D3D7] [ED401B6D]
08 59,5 [BB09305E] [3824651C]
09 31,3 [7CBBEF29] [C0C2E172]
10 52,9 [0BB670B2] [DD52D746]
11 20,3 [F4678F85] [6F3FF114]
12 44,1 [3DE1FBF8] [47AE9C25]
13 22,0 [FE20A26A] [A1975E47]
14 28,8 [663129DC] [E3674908]
15 62,1 [4AE868C6] [0440999C]
16 40,0 [CDB77C9C] [6310E61F]
17 38,1 [D664D614] [4D58A7FC]
18 14,6 [4C5975A6] [7CCB8720]

foobar2000 1.2 / Dynamic Range Meter 1.1.1
log date: 2018-12-20 14:08:55

––––––––––––––––––––––––––––––––––––––––
Analyzed: Aline Zylberajch / Scarlatti - Sonates
––––––––––––––––––––––––––––––––––––––––

DR Peak RMS Duration Track
––––––––––––––––––––––––––––––––––––––––
DR12 -17.34 dB -34.01 dB 4:04 01-Sonata in F minor, K 481
DR12 -7.43 dB -22.56 dB 2:43 02-Sonata in F minor, K 386
DR13 -7.25 dB -24.78 dB 4:14 03-Sonata in D major, K 282
DR13 -11.37 dB -29.23 dB 4:02 04-Sonata in D minor, K 213
DR13 -8.04 dB -23.20 dB 2:42 05-Sonata in G minor, K 43
DR14 -17.31 dB -34.76 dB 4:10 06-Sonata in C major, K 308
DR13 -7.09 dB -23.46 dB 5:00 07-Sonata in C major, K 49
DR14 -4.50 dB -22.20 dB 3:44 08-Sonata in C major, K 133
DR13 -10.09 dB -26.08 dB 4:16 09-Sonata in G minor, K 93
DR13 -5.52 dB -21.34 dB 3:24 10-Sonata in D major, K 45
DR13 -13.81 dB -30.03 dB 1:36 11-Sonata in D minor, K 32
DR12 -7.09 dB -21.55 dB 2:59 12-Sonata in D minor, K 517
DR13 -13.15 dB -30.48 dB 5:26 13-Sonata in G major, K 144
DR13 -10.78 dB -27.61 dB 2:56 14-Sonata in G major, K 391
DR18 -4.13 dB -28.30 dB 5:05 15-Sonata in D major, K 490
DR13 -7.94 dB -23.89 dB 2:27 16-Sonata in A major, K 220
DR12 -8.37 dB -24.95 dB 2:58 17-Sonata in E major, K 216
DR13 -16.69 dB -34.61 dB 3:27 18-Sonata in E minor, K 291
––––––––––––––––––––––––––––––––––––––––

Number of tracks: 18
Official DR value: DR13

Samplerate: 44100 Hz
Channels: 2
Bits per sample: 16
Bitrate: 483 kbps
Codec: FLAC
================================================================================

Aline Zylberajch - Domenico Scarlatti: Sonates (2005)

All thanks to original releaser - A-Z

More interesting music in My Blog