Subcategories

Allan Holdsworth - Metal Fatigue (1985) {Cream Records}

Posted By: tiburon
Allan Holdsworth - Metal Fatigue (1985) {Cream Records}

Allan Holdsworth - Metal Fatigue (1985) {Cream Records}
EAC 0.95b4 | FLAC tracks level 8 | Cue+Log+M3U | Full Scans 300dpi | 259MB + 5% Recovery
MP3 CBR 320 Kbps | 87MB + 5% Recovery
Genre: Fusion

Criminally unknown and underappreciated, Allan Holdsworth is one of the greatest musicians ever to pick up the electric guitar. Here, on 1985's Metal Fatigue, everything finally comes together for him. For the majority of this record, Holdsworth is joined by bassist Jimmy Johnson and drummer Chad Wackerman, and these two musicians, virtuosos in their own right, complement Holdsworth beautifully (check out Johnson's wonderful part in "Home" and lovely solo on "Panic Station"). The leader is known for his extremely legato phrasing and rich harmonic vocabulary, both of which are on display in the solo and frantic fills of "Metal Fatigue."
Track List
01. Metal Fatigue 4:54
02. Home 5:29
03. Devil Take The Hindmost 5:33
04. Panic Station 3:31
05. The Un-Merry-Go-Round 14:06
06. In The Mystery 3:49

musicians
Allan Holdsworth – guitar
Jimmy Johnson – bass
Alan Pasqua – keyboards
Gary Willis – bass on track 5
Paul Williams – vocals on tracks 1, 4
Paul Korda – vocals on track 6
Chad Wackerman – drums (except tracks 5, 6)
Gary Husband – drums on track 5
Mac Hine – drums on track 6

Produced by Allan Holdsworth


EAC extraction logfile from 25. March 2006, 13:47 for CD
Allan Holdsworth / Metal Fatigue

Used drive : PLEXTOR DVDR PX-716A Adapter: 0 ID: 0
Read mode : Secure with NO C2, accurate stream, disable cache
Read offset correction : 30
Overread into Lead-In and Lead-Out : No

Used output format : C:\Programme\Exact Audio Copy\flac\bin\flac.exe (User Defined Encoder)
128 kBit/s
Additional command line options : -8 -V -T "ARTIST=%a" -T "TITLE=%t" -T "ALBUM=%g" -T "DATE=%y" -T "TRACKNUMBER=%n" -T "GENRE=%m" -T "COMMENT=EAC Flac 1.1.2 -8" %s

Other options :
Fill up missing offset samples with silence : Yes
Delete leading and trailing silent blocks : No
Installed external ASPI interface


Track 1
Filename H:\Downloaded Torrents\Allan Holdsworth - Metal Fatigue (1985) [FLAC]\01 - Metal Fatigue.wav

Pre-gap length 0:00:02.42

Peak level 96.2 %
Track quality 99.9 %
Test CRC 73D341DA
Copy CRC 73D341DA
Copy OK

Track 2
Filename H:\Downloaded Torrents\Allan Holdsworth - Metal Fatigue (1985) [FLAC]\02 - Home.wav

Peak level 89.3 %
Track quality 100.0 %
Test CRC 40823288
Copy CRC 40823288
Copy OK

Track 3
Filename H:\Downloaded Torrents\Allan Holdsworth - Metal Fatigue (1985) [FLAC]\03 - Devil Take The Hindmost.wav

Pre-gap length 0:00:01.53

Peak level 90.2 %
Track quality 100.0 %
Test CRC 0EAB5BE7
Copy CRC 0EAB5BE7
Copy OK

Track 4
Filename H:\Downloaded Torrents\Allan Holdsworth - Metal Fatigue (1985) [FLAC]\04 - Panic Station.wav

Pre-gap length 0:00:00.53

Peak level 74.0 %
Track quality 100.0 %
Test CRC 11B04DB1
Copy CRC 11B04DB1
Copy OK

Track 5
Filename H:\Downloaded Torrents\Allan Holdsworth - Metal Fatigue (1985) [FLAC]\05 - The Un-Merry Go-Round.wav

Pre-gap length 0:00:01.44

Peak level 78.2 %
Track quality 100.0 %
Test CRC 4F6CE095
Copy CRC 4F6CE095
Copy OK

Track 6
Filename H:\Downloaded Torrents\Allan Holdsworth - Metal Fatigue (1985) [FLAC]\06 - In The Mystery.wav

Pre-gap length 0:00:00.60

Peak level 80.5 %
Track quality 100.0 %
Test CRC 0D82444E
Copy CRC 0D82444E
Copy OK

No errors occured


End of status report


––––––––––––––––––––––––––––––––––––––––
Analyzed: Allan Holdswoth / Metal Fatigue
––––––––––––––––––––––––––––––––––––––––

DR Peak RMS Duration Track
––––––––––––––––––––––––––––––––––––––––
DR13 -0.34 dB -16.09 dB 4:56 01-Metal Fatigue
DR13 -0.98 dB -17.57 dB 5:33 02-Home
DR12 -0.90 dB -16.21 dB 5:37 03-Devil Take The Hindmost
DR11 -2.61 dB -16.53 dB 3:37 04-Panic Station
DR13 -2.13 dB -18.62 dB 14:11 05-The Un-Merry-Go-Round
DR12 -1.88 dB -16.29 dB 3:49 06-In The Mystery
––––––––––––––––––––––––––––––––––––––––

Number of tracks: 6
Official DR value: DR12

Samplerate: 44100 Hz
Channels: 2
Bits per sample: 16
Bitrate: 856 kbps
Codec: FLAC
================================================================================

Allan Holdsworth - Metal Fatigue (1985) {Cream Records}
Allan Holdsworth - Metal Fatigue (1985) {Cream Records}
Allan Holdsworth - Metal Fatigue (1985) {Cream Records}


Thanks to the original ripper