Tags
Language
Tags

Alphaville - Forever Pop (2001)

Posted By:
Alphaville - Forever Pop (2001)

Alphaville - Forever Pop (2001)
EAC | Flac(Image) + Cue + Log & MP3 CBR 320Kbps
Warner, 8573880342 | ~ 501 or 170 Mb | Scans(jpg) -> 53 Mb
Synthpop / New Wave

Alphaville has always embraced technology and used it to produce music to show the coldness of the world. For this release, their cold, distant, sometimes frightening music has been remixed to fit into the sound and the vibes of 2001/2002. That does not mean that this is a party album, quite the opposite. This is dance music for the depressed 4 a.m. rave, and for the most part it is quite good. The remixes maintain the beauty of the original music, and the songs chosen easily lend themselves to the remix treatment. Mark Plati redoes "Red Rose" and comes close to bettering the original by adding a heavy dance beat combined with an eerie droning, which produces an overall uneasy feeling. A few of the remixes do not work, such as Eiffel 65's mix of "Big in Japan" (the mix of the song on the CD), due to straying too far away from the original song while not adding anything interesting to win over the listener. In this particular case, the song falls into Cher territory, which is somewhere an Alphaville song should never go. While many remix albums are marketing strategies for more money or lengthening the shelf life of an album (or artist), it is refreshing to know that when done correctly it sounds quite stunning. Keep listening after "Big in Japan" (the last listed track) for an uncredited remix of "Jerusalem," which is one of the most beautiful songs Alphaville has ever created, and the remix brings out that beauty. That song is worth the price of the CD alone.

by Aaron Badgley, allmusic
Alphaville - Forever Pop (2001):

Alphaville - Forever Pop (2001)

Tracklist:

01. Forever Young (F.A.F. mix (album version)) – 4:58
02. Dance with Me (Paul van Dyk mix) – 3:54
03. Big in Japan (Roland Spremberg mix) – 3:42
04. Romeos (Rewarped mix) – 4:34
05. Summer Rain (De-Phazz mix) – 4:21
06. Jerusalem (Georg Kaleve mix) – 4:39
07. Summer in Berlin (Cristian Fleps mix) – 3:45
08. Sounds Like a Melody (Staggman mix) – 7:52
09. Lassie Come Home (@home mix) – 4:54
10. Jet Set (Saunaclub mix) – 4:55
11. A Victory of Love (JAB mix) – 4:30
12. Red Rose (Mark Plati mix) – 5:40
13. Big in Japan (Eiffel 65 mix) –
13-1. Big in Japan (Eiffel 65 mix) – 5:00
13-2. Jerusalem (Georg Kaleve Extended Mix) – 8:53 (Hidden Track)

Converted to Image (CUETools 2.1.4)

Exact Audio Copy V1.0 beta 6 from 9. April 2015

Отчёт EAC об извлечении, выполненном 26. июля 2015, 19:15

Alphaville / Forever Pop

Дисковод: YAMAHA CRW-F1E Adapter: 1 ID: 1

Режим чтения : Достоверность
Использование точного потока : Да
Отключение кэша аудио : Да
Использование указателей C2 : Нет

Коррекция смещения при чтении : 733
Способность читать области Lead-in и Lead-out : Нет
Заполнение пропущенных сэмплов тишиной : Да
Удаление блоков с тишиной в начале и конце : Нет
При вычислениях CRC использовались нулевые сэмплы : Да
Интерфейс : Встроенный Win32-интерфейс для Win NT/2000
Обработка зазоров : Добавлено к предыдущему треку

Выходной формат : Пользовательский кодировщик
Выбранный битрейт : 1024 kBit/s
Качество : Высокий
Добавление ID3-тега : Да
Утилита сжатия : C:\Program Files (x86)\Exact Audio Copy\FLAC\FLAC.EXE
Дополнительные параметры : -6 -V -T "ARTIST=%artist%" -T "TITLE=%title%" -T "ALBUM=%albumtitle%" -T "DATE=%year%" -T "TRACKNUMBER=%tracknr%" -T "GENRE=%genre%" -T "COMMENT=%comment%" -T "BAND=%albuminterpret%" -T "ALBUMARTIST=%albuminterpret%" -T "COMPOSER=%composer%" %haslyrics%–tag-from-file=LYRICS="%lyricsfile%"%haslyrics% -T "DISCNUMBER=%cdnumber%" -T "TOTALDISCS=%totalcds%" -T "TOTALTRACKS=%numtracks%" %hascover%–picture="%coverfile%"%hascover% %source% -o %dest%


TOC извлечённого CD

Трек | Старт | Длительность | Начальный сектор | Конечный сектор
––––––––––––––––––––––––––––––––––-
1 | 0:00.00 | 4:58.00 | 0 | 22349
2 | 4:58.00 | 3:54.60 | 22350 | 39959
3 | 8:52.60 | 3:42.00 | 39960 | 56609
4 | 12:34.60 | 4:34.00 | 56610 | 77159
5 | 17:08.60 | 4:21.00 | 77160 | 96734
6 | 21:29.60 | 4:39.00 | 96735 | 117659
7 | 26:08.60 | 3:45.00 | 117660 | 134534
8 | 29:53.60 | 7:51.50 | 134535 | 169909
9 | 37:45.35 | 4:54.25 | 169910 | 191984
10 | 42:39.60 | 4:54.50 | 191985 | 214084
11 | 47:34.35 | 4:30.25 | 214085 | 234359
12 | 52:04.60 | 5:39.60 | 234360 | 259844
13 | 57:44.45 | 14:23.38 | 259845 | 324607


Трек 1

Имя файла G:\Music\01-Forever Young (F.A.F. mix).wav

Длина предзазора 0:00:02.00

Пиковый уровень 97.7 %
Скорость извлечения 2.2 X
Качество трека 100.0 %
CRC теста 24ABB447
CRC копии 24ABB447
Точное извлечение (достоверность 19) [FA05BCBC] (AR v2)
Копирование… OK

Трек 2

Имя файла G:\Music\02-Dance With Me (Paul van Dyk mix).wav

Длина предзазора 0:00:02.31

Пиковый уровень 97.7 %
Скорость извлечения 2.1 X
Качество трека 100.0 %
CRC теста 69305E94
CRC копии 69305E94
Точное извлечение (достоверность 20) [1906BFE6] (AR v2)
Копирование… OK

Трек 3

Имя файла G:\Music\03-Big in Japan (Roland Spremberg mix).wav

Длина предзазора 0:00:01.40

Пиковый уровень 97.7 %
Скорость извлечения 2.1 X
Качество трека 100.0 %
CRC теста FDECA48E
CRC копии FDECA48E
Точное извлечение (достоверность 21) [8E4C60EF] (AR v2)
Копирование… OK

Трек 4

Имя файла G:\Music\04-Romeos (Rewarped mix).wav

Длина предзазора 0:00:00.68

Пиковый уровень 97.7 %
Скорость извлечения 2.1 X
Качество трека 100.0 %
CRC теста C9BE659C
CRC копии C9BE659C
Точное извлечение (достоверность 20) [AC721E08] (AR v2)
Копирование… OK

Трек 5

Имя файла G:\Music\05-Summer Rain (De-Phazz mix).wav

Длина предзазора 0:00:01.39

Пиковый уровень 97.7 %
Скорость извлечения 2.2 X
Качество трека 100.0 %
CRC теста F7FF4632
CRC копии F7FF4632
Точное извлечение (достоверность 21) [3490DDBE] (AR v2)
Копирование… OK

Трек 6

Имя файла G:\Music\06-Jerusalem (Georg Kaleve mix).wav

Длина предзазора 0:00:01.40

Пиковый уровень 97.7 %
Скорость извлечения 2.1 X
Качество трека 100.0 %
CRC теста 84322A3C
CRC копии 84322A3C
Точное извлечение (достоверность 21) [2FE17D89] (AR v2)
Копирование… OK

Трек 7

Имя файла G:\Music\07-Summer in Berlin (Christian Fleps mix).wav

Длина предзазора 0:00:02.70

Пиковый уровень 97.7 %
Скорость извлечения 2.0 X
Качество трека 100.0 %
CRC теста 1FA78540
CRC копии 1FA78540
Точное извлечение (достоверность 21) [6D776A4B] (AR v2)
Копирование… OK

Трек 8

Имя файла G:\Music\08-Sounds Like a Melody (Staggman mix).wav

Длина предзазора 0:00:01.19

Пиковый уровень 97.7 %
Скорость извлечения 1.4 X
Качество трека 100.0 %
CRC теста 6AB8C164
CRC копии 6AB8C164
Точное извлечение (достоверность 21) [6A36591C] (AR v2)
Копирование… OK

Трек 9

Имя файла G:\Music\09-Lassie Come Home (@home-mix).wav

Длина предзазора 0:00:02.02

Пиковый уровень 97.7 %
Скорость извлечения 2.2 X
Качество трека 100.0 %
CRC теста 3BC13D13
CRC копии 3BC13D13
Точное извлечение (достоверность 20) [5C89FE67] (AR v2)
Копирование… OK

Трек 10

Имя файла G:\Music\10-Jet Set (Saunaclub mix).wav

Длина предзазора 0:00:02.19

Пиковый уровень 97.7 %
Скорость извлечения 2.2 X
Качество трека 100.0 %
CRC теста E22974F8
CRC копии E22974F8
Точное извлечение (достоверность 20) [4A2D2044] (AR v2)
Копирование… OK

Трек 11

Имя файла G:\Music\11-A Victory of Love (Jab mix).wav

Длина предзазора 0:00:02.51

Пиковый уровень 97.7 %
Скорость извлечения 2.2 X
Качество трека 100.0 %
CRC теста 7361E7A1
CRC копии 7361E7A1
Точное извлечение (достоверность 21) [E0DC18E5] (AR v2)
Копирование… OK

Трек 12

Имя файла G:\Music\12-Red Rose (Mark Plati mix).wav

Длина предзазора 0:00:01.62

Пиковый уровень 97.7 %
Скорость извлечения 2.1 X
Качество трека 100.0 %
CRC теста E13CA6AC
CRC копии E13CA6AC
Точное извлечение (достоверность 21) [7453F551] (AR v2)
Копирование… OK

Трек 13

Имя файла G:\Music\13-Big in Japan (Eiffel 65 mix) , Jerusalem (Georg Kaleve mix 2).wav

Длина предзазора 0:00:03.26

Пиковый уровень 98.8 %
Скорость извлечения 2.4 X
Качество трека 100.0 %
CRC теста F73F1034
CRC копии F73F1034
Точное извлечение (достоверность 19) [D1CE81CE] (AR v2)
Копирование… OK


Все треки извлечены точно

Ошибок не произошло

Конец отчёта

–– CUETools DB Plugin V2.1.6

[CTDB TOCID: WwVEcQINYugwKUixEvNQK0vmxFA-] found
Submit result: WwVEcQINYugwKUixEvNQK0vmxFA- has been confirmed
Track | CTDB Status
1 | (29/29) Accurately ripped
2 | (28/29) Accurately ripped
3 | (29/29) Accurately ripped
4 | (29/29) Accurately ripped
5 | (29/29) Accurately ripped
6 | (29/29) Accurately ripped
7 | (29/29) Accurately ripped
8 | (27/29) Accurately ripped
9 | (27/29) Accurately ripped
10 | (27/29) Accurately ripped
11 | (27/29) Accurately ripped
12 | (29/29) Accurately ripped
13 | (26/29) Accurately ripped


==== Контрольная сумма отчёта 5278165B8A608637120DFFC2A96239ACC2AAD3B2471D797C64DD5AF2DAFDE263 ====

foobar2000 1.2.9 / Dynamic Range Meter 1.1.1
log date: 2017-06-09 15:00:02

––––––––––––––––––––––––––––––––––––––––
Analyzed: Alphaville / Forever Pop
––––––––––––––––––––––––––––––––––––––––

DR Peak RMS Duration Track
––––––––––––––––––––––––––––––––––––––––
DR7 -0.20 dB -9.23 dB 4:58 01-Forever Young (F.A.F. mix)
DR8 -0.20 dB -9.35 dB 3:55 02-Dance With Me (Paul van Dyk mix)
DR9 -0.20 dB -10.08 dB 3:42 03-Big in Japan (Roland Spremberg mix)
DR8 -0.20 dB -10.49 dB 4:34 04-Romeos (Rewarped mix)
DR10 -0.20 dB -11.61 dB 4:21 05-Summer Rain (De-Phazz mix)
DR10 -0.20 dB -11.79 dB 4:39 06-Jerusalem (Georg Kaleve mix)
DR9 -0.20 dB -11.15 dB 3:45 07-Summer in Berlin (Christian Fleps mix)
DR8 -0.20 dB -9.47 dB 7:52 08-Sounds Like a Melody (Staggman mix)
DR9 -0.20 dB -10.62 dB 4:54 09-Lassie Come Home (@home-mix)
DR9 -0.20 dB -11.94 dB 4:55 10-Jet Set (Saunaclub mix)
DR8 -0.20 dB -10.38 dB 4:30 11-A Victory of Love (Jab mix)
DR8 -0.20 dB -9.59 dB 5:40 12-Red Rose (Mark Plati mix)
DR7 -0.10 dB -10.80 dB 14:24 13-Big in Japan (Eiffel 65 mix) / Jerusalem (Georg Kaleve mix 2)
––––––––––––––––––––––––––––––––––––––––

Number of tracks: 13
Official DR value: DR8

Samplerate: 44100 Hz
Channels: 2
Bits per sample: 16
Bitrate: 943 kbps
Codec: FLAC
====================

[CUETools log; Date: 09.06.2017 14:59:49; Version: 2.1.4]
[CTDB TOCID: WwVEcQINYugwKUixEvNQK0vmxFA-] found.
Track | CTDB Status
1 | (58/59) Accurately ripped
2 | (58/59) Accurately ripped
3 | (59/59) Accurately ripped
4 | (58/59) Accurately ripped
5 | (58/59) Accurately ripped
6 | (58/59) Accurately ripped
7 | (58/59) Accurately ripped
8 | (56/59) Accurately ripped
9 | (56/59) Accurately ripped
10 | (57/59) Accurately ripped
11 | (57/59) Accurately ripped
12 | (59/59) Accurately ripped
13 | (55/59) Accurately ripped
[AccurateRip ID: 001d995b-012e0fd3-aa10e80d] found.
Track [ CRC | V2 ] Status
01 [8f0cfab1|fa05bcbc] (27+25/52) Accurately ripped
02 [ee7a632b|1906bfe6] (26+25/51) Accurately ripped
03 [91f0639f|8e4c60ef] (26+26/52) Accurately ripped
04 [ae4458f3|ac721e08] (26+25/51) Accurately ripped
05 [61cb2c07|3490ddbe] (26+26/52) Accurately ripped
06 [e3dc4c40|2fe17d89] (26+26/52) Accurately ripped
07 [2b4a476c|6d776a4b] (25+26/51) Accurately ripped
08 [6a901c69|6a36591c] (26+26/52) Accurately ripped
09 [1520aa5c|5c89fe67] (26+25/51) Accurately ripped
10 [d3d89337|4a2d2044] (26+25/51) Accurately ripped
11 [cb855cba|e0dc18e5] (25+26/51) Accurately ripped
12 [f8219555|7453f551] (25+26/51) Accurately ripped
13 [a3d7b1d6|d1ce81ce] (21+25/46) Accurately ripped

Track Peak [ CRC32 ] [W/O NULL] [ LOG ]
– 98,8 [176C6D38] [21688782]
01 97,7 [24ABB447] [7C35C46E] CRC32
02 97,7 [69305E94] [F0818285] CRC32
03 97,7 [FDECA48E] [D3D3F891] CRC32
04 97,7 [C9BE659C] [2F47B802] CRC32
05 97,7 [F7FF4632] [3BC64D9F] CRC32
06 97,7 [84322A3C] [E51BDF4D] CRC32
07 97,7 [1FA78540] [489B8E7B] CRC32
08 97,7 [6AB8C164] [34845DAB] CRC32
09 97,7 [3BC13D13] [8683C084] CRC32
10 97,7 [E22974F8] [556DD825] CRC32
11 97,7 [7361E7A1] [0F51FF55] CRC32
12 97,7 [E13CA6AC] [0FC648A0] CRC32
13 98,8 [F73F1034] [E3B7E314] CRC32


Alphaville - Forever Pop (2001)

All thanks go to the original releaser

Alphaville in my Blog

Download Alphaville - Forever Pop (2001):