Subcategories
Tags
Language
Tags

Amy Denio - Eureka (2019)

Posted By: gribovar
Amy Denio - Eureka (2019)

Amy Denio - Eureka (2019)
EAC Rip | FLAC (tracks+.cue+log) - 291 MB | MP3 CBR 320 kbps (LAME 3.93) - 134 MB | Covers - 98 MB
Genre: World Fusion | RAR 3% Rec. | Label: Klanggalerie

Seattle’s Jazz Hall of Fame ‘Avant Goddess’ has produced her 17th solo recording, featuring beautiful multi-instrumental 'world soul' music sung in English and Serbo-Croatian, silent film soundtracks, commissioned compositions, and whimsical songs.
Amy Denio is a Seattle-based multi-instrumental composer of soundtracks for modern dance, film and theater, as well as a songwriter and music improviser. Often called an unclassifiable avant-garde jazz musician, her main instruments are voice, alto saxophone, clarinet, accordion, acoustic and electric guitars, electric bass, and theremin.
Tracklist:
01. Pozdravko Kolo (Greeting Circle Dance)
02. Petoljubac
03. Sretan Ruže Dan (Happy Roses Day)
04. Novi Sad
05. Feather Weather
06. Hatching a Plan
07. I Want All Beer Cheez
08. The Artist Arrives
09. Mercury in Retrograde
10. The Artist Meets The Mountain Man
11. Steamy Ast Lag
12. Venus Envy
13. The Meeting of Foes
14. The Quilting Bee
15. Race Along The River
16. Escape Towards Love
17. Wolf Moon
18. Stickney The Crater

Total time: 55:39

Exact Audio Copy V1.0 beta 4 from 7. December 2014

EAC extraction logfile from 9. December 2019, 20:56

Amy Denio / Eureka

Used drive : ATAPI iHAS124 F Adapter: 1 ID: 0

Read mode : Secure
Utilize accurate stream : Yes
Defeat audio cache : Yes
Make use of C2 pointers : No

Read offset correction : 6
Overread into Lead-In and Lead-Out : No
Fill up missing offset samples with silence : Yes
Delete leading and trailing silent blocks : No
Null samples used in CRC calculations : Yes
Used interface : Native Win32 interface for Win NT & 2000
Gap handling : Appended to previous track

Used output format : User Defined Encoder
Selected bitrate : 896 kBit/s
Quality : High
Add ID3 tag : No
Command line compressor : C:\Program Files\flac-1.3.2-win\win64\flac.exe
Additional command line options : -8 -V -T "ARTIST=%artist%" -T "TITLE=%title%" -T "ALBUM=%albumtitle%" -T "DATE=%year%" -T "TRACKNUMBER=%tracknr%" -T "GENRE=%genre%" -T "COMMENT=ripped by vp_sunset" %source% -o %dest%


TOC of the extracted CD

Track | Start | Length | Start sector | End sector
––––––––––––––––––––––––––––-
1 | 0:00.00 | 3:29.37 | 0 | 15711
2 | 3:29.37 | 5:14.52 | 15712 | 39313
3 | 8:44.14 | 4:34.70 | 39314 | 59933
4 | 13:19.09 | 3:38.39 | 59934 | 76322
5 | 16:57.48 | 2:45.71 | 76323 | 88768
6 | 19:43.44 | 2:09.21 | 88769 | 98464
7 | 21:52.65 | 2:31.51 | 98465 | 109840
8 | 24:24.41 | 2:45.45 | 109841 | 122260
9 | 27:10.11 | 2:31.71 | 122261 | 133656
10 | 29:42.07 | 1:59.70 | 133657 | 142651
11 | 31:42.02 | 1:53.17 | 142652 | 151143
12 | 33:35.19 | 2:54.19 | 151144 | 164212
13 | 36:29.38 | 3:19.10 | 164213 | 179147
14 | 39:48.48 | 3:57.46 | 179148 | 196968
15 | 43:46.19 | 3:04.49 | 196969 | 210817
16 | 46:50.68 | 2:33.53 | 210818 | 222345
17 | 49:24.46 | 3:19.33 | 222346 | 237303
18 | 52:44.04 | 2:55.17 | 237304 | 250445


Track 1

Filename C:\_EAC\01. Pozdravko Kolo (Greeting Circle Dance).wav

Pre-gap length 0:00:02.00

Peak level 96.7 %
Extraction speed 4.2 X
Track quality 99.9 %
Test CRC F1BD5E66
Copy CRC F1BD5E66
Track not present in AccurateRip database
Copy OK

Track 2

Filename C:\_EAC\02. Petoljubac.wav

Pre-gap length 0:00:03.05

Peak level 96.6 %
Extraction speed 5.2 X
Track quality 99.9 %
Test CRC 0AEDC259
Copy CRC 0AEDC259
Track not present in AccurateRip database
Copy OK

Track 3

Filename C:\_EAC\03. Sretan Ruže Dan (Happy Roses Day).wav

Pre-gap length 0:00:01.77

Peak level 96.7 %
Extraction speed 6.6 X
Track quality 100.0 %
Test CRC 64E463E2
Copy CRC 64E463E2
Track not present in AccurateRip database
Copy OK

Track 4

Filename C:\_EAC\04. Novi Sad.wav

Pre-gap length 0:00:01.38

Peak level 88.1 %
Extraction speed 6.9 X
Track quality 100.0 %
Test CRC 5519A17A
Copy CRC 5519A17A
Track not present in AccurateRip database
Copy OK

Track 5

Filename C:\_EAC\05. Feather Weather.wav

Pre-gap length 0:00:02.30

Peak level 85.7 %
Extraction speed 6.9 X
Track quality 100.0 %
Test CRC D7B84927
Copy CRC D7B84927
Track not present in AccurateRip database
Copy OK

Track 6

Filename C:\_EAC\06. Hatching a Plan.wav

Pre-gap length 0:00:02.00

Peak level 78.5 %
Extraction speed 6.7 X
Track quality 100.0 %
Test CRC CE12BFCC
Copy CRC CE12BFCC
Track not present in AccurateRip database
Copy OK

Track 7

Filename C:\_EAC\07. I Want All Beer Cheez.wav

Pre-gap length 0:00:02.34

Peak level 80.8 %
Extraction speed 7.3 X
Track quality 100.0 %
Test CRC 2A7EE3FA
Copy CRC 2A7EE3FA
Track not present in AccurateRip database
Copy OK

Track 8

Filename C:\_EAC\08. The Artist Arrives.wav

Pre-gap length 0:00:02.00

Peak level 76.3 %
Extraction speed 7.6 X
Track quality 100.0 %
Test CRC 67CFCBD3
Copy CRC 67CFCBD3
Track not present in AccurateRip database
Copy OK

Track 9

Filename C:\_EAC\09. Mercury in Retrograde.wav

Pre-gap length 0:00:00.74

Peak level 96.6 %
Extraction speed 7.7 X
Track quality 100.0 %
Test CRC 96E5D810
Copy CRC 96E5D810
Track not present in AccurateRip database
Copy OK

Track 10

Filename C:\_EAC\10. The Artist Meets The Mountain Man.wav

Pre-gap length 0:00:01.33

Peak level 80.9 %
Extraction speed 7.4 X
Track quality 100.0 %
Test CRC DBB72867
Copy CRC DBB72867
Track not present in AccurateRip database
Copy OK

Track 11

Filename C:\_EAC\11. Steamy Ast Lag.wav

Pre-gap length 0:00:00.80

Peak level 85.7 %
Extraction speed 5.6 X
Track quality 99.9 %
Test CRC F65BCEDD
Copy CRC F65BCEDD
Track not present in AccurateRip database
Copy OK

Track 12

Filename C:\_EAC\12. Venus Envy.wav

Pre-gap length 0:00:01.26

Peak level 96.6 %
Extraction speed 6.7 X
Track quality 99.9 %
Test CRC 665E1510
Copy CRC 665E1510
Track not present in AccurateRip database
Copy OK

Track 13

Filename C:\_EAC\13. The Meeting of Foes.wav

Pre-gap length 0:00:00.85

Peak level 74.6 %
Extraction speed 8.9 X
Track quality 100.0 %
Test CRC B9F33411
Copy CRC B9F33411
Track not present in AccurateRip database
Copy OK

Track 14

Filename C:\_EAC\14. The Quilting Bee.wav

Pre-gap length 0:00:00.98

Peak level 79.0 %
Extraction speed 9.4 X
Track quality 100.0 %
Test CRC EF172D02
Copy CRC EF172D02
Track not present in AccurateRip database
Copy OK

Track 15

Filename C:\_EAC\15. Race Along The River.wav

Pre-gap length 0:00:00.22

Peak level 70.5 %
Extraction speed 9.3 X
Track quality 100.0 %
Test CRC 54023414
Copy CRC 54023414
Track not present in AccurateRip database
Copy OK

Track 16

Filename C:\_EAC\16. Escape Towards Love.wav

Pre-gap length 0:00:00.44

Peak level 85.9 %
Extraction speed 7.2 X
Track quality 99.9 %
Test CRC 235DC69E
Copy CRC 235DC69E
Track not present in AccurateRip database
Copy OK

Track 17

Filename C:\_EAC\17. Wolf Moon.wav

Pre-gap length 0:00:00.68

Peak level 81.0 %
Extraction speed 9.9 X
Track quality 100.0 %
Test CRC 36C6C89D
Copy CRC 36C6C89D
Track not present in AccurateRip database
Copy OK

Track 18

Filename C:\_EAC\18. Stickney The Crater.wav

Pre-gap length 0:00:01.60

Peak level 96.6 %
Extraction speed 9.7 X
Track quality 100.0 %
Test CRC D26ACCEF
Copy CRC D26ACCEF
Track not present in AccurateRip database
Copy OK


None of the tracks are present in the AccurateRip database

No errors occurred

End of status report

–– CUETools DB Plugin V2.1.4

[CTDB TOCID: ratvhKHaivDYP825Q6WWt0khZ1o-] disk not present in database
Submit result: ratvhKHaivDYP825Q6WWt0khZ1o- has been uploaded


==== Log checksum AB7474FAB8DF98BA538AB2D9D3D8F9ECF0054B4A8B62A5C1A2ADC05DAF8269D1 ====

[CUETools log; Date: 11.12.2019 18:08:33; Version: 2.1.4]
[CTDB TOCID: ratvhKHaivDYP825Q6WWt0khZ1o-] found.
Track | CTDB Status
1 | (1/1) Accurately ripped
2 | (1/1) Accurately ripped
3 | (1/1) Accurately ripped
4 | (1/1) Accurately ripped
5 | (1/1) Accurately ripped
6 | (1/1) Accurately ripped
7 | (1/1) Accurately ripped
8 | (1/1) Accurately ripped
9 | (1/1) Accurately ripped
10 | (1/1) Accurately ripped
11 | (1/1) Accurately ripped
12 | (1/1) Accurately ripped
13 | (1/1) Accurately ripped
14 | (1/1) Accurately ripped
15 | (1/1) Accurately ripped
16 | (1/1) Accurately ripped
17 | (1/1) Accurately ripped
18 | (1/1) Accurately ripped
[AccurateRip ID: 002622f4-01ef7982-e90d0b12] disk not present in database.

Track Peak [ CRC32 ] [W/O NULL] [ LOG ]
– 96,7 [08D54DB4] [6CB0A74A]
01 96,7 [F1BD5E66] [3FCA13AA] CRC32
02 96,6 [0AEDC259] [449D27DB] CRC32
03 96,7 [64E463E2] [1F54E3CF] CRC32
04 88,1 [5519A17A] [693AFF5C] CRC32
05 85,7 [D7B84927] [FF419B12] CRC32
06 78,5 [CE12BFCC] [06D5282C] CRC32
07 80,8 [2A7EE3FA] [3BF44635] CRC32
08 76,3 [67CFCBD3] [CE9E864A] CRC32
09 96,6 [96E5D810] [C5BDD4DB] CRC32
10 80,9 [DBB72867] [8F63B698] CRC32
11 85,7 [F65BCEDD] [4474FB57] CRC32
12 96,6 [665E1510] [8E371534] CRC32
13 74,6 [B9F33411] [BF8D3255] CRC32
14 79,0 [EF172D02] [DD56AC92] CRC32
15 70,5 [54023414] [265776EB] CRC32
16 85,9 [235DC69E] [62B46E4E] CRC32
17 81,0 [36C6C89D] [960C2EAD] CRC32
18 96,6 [D26ACCEF] [FB332CEB] CRC32

Thanks to vp_sunset