Subcategories

Amy Wolter - Hit Me In The Heart (1994)

Posted By: BlondStyle
Amy Wolter - Hit Me In The Heart (1994)

Amy Wolter - Hit Me In The Heart (1994)
Rock, Melodic Rock, AOR, CCM | EAC Rip | FLAC, Img+CUE+LOG+Scans (JPEG) | 45:33 | 352,61 Mb
Label: WAL/Temple Productions (USA) | Cat.# 7011514023 | Released: 1994
Amy Wolter - Hit Me In The Heart (1994)

The female vocalist from the Christian Rock band Fighter, this is Amy's first and only solo album. Reminiscent of 80's female Rockers like Benatar, it's a pretty solid album for fans of Fighter or the Melodic Rock genre.
~By Kent G.

Amy Wolter - Hit Me In The Heart (1994)

Amy Wolter - Hit Me In The Heart (1994)




Release of this album/CD: 1994 [CD WAL/Temple Productions (USA), Cat.# 7011514023, UPC: 080688306427]
℗© 1994 WAL, a Division of Word Records & Music.
Manufactured and Distributed by Word Records & Music.
Printed/Made in U.S.A.

Credits:

Additional Guitars - Bill Protine
Background Vocals - Lis Marsh, Sean Murphy
Bass - Sonny Thompson
Drums - Mike Bland
Guitars - Gene Ford
Keyboards And B-3, Drum & Bass Programming - Tom Wanca
Keyboards And Programming, B-3 - Morris Hayes
Keyboards And Programming - Mark Pence
Lead & Background Vocals, Guitars, Keyboards - Amy Wolter
Lead And Rhythm Guitars - Bill Heller
Rhythm Guitar - Caesar, Mark H. Chesshir


Tracklist:

01. There Won't Be A Next Time (03:58)
02. Blue Skies (03:57)
03. Oils On This Canvas (04:31)
04. Two Worlds (04:29)
05. We All Need (04:44)
06. Break My Fall (03:40)
07. New Start (04:04)
08. The Promise (03:58)
09. Don't Seem Right (04:07)
10. Be That Child (03:40)
11. Where My Heart Is (04:24)

Exact Audio Copy V1.3 from 2. September 2016

Отчёт EAC об извлечении, выполненном 11. января 2020, 14:35

Amy Wolter / Hit Me In the Heart (7011514023)

Дисковод: PLEXTOR BD-R PX-B950SA Adapter: 1 ID: 0

Режим чтения : Достоверность
Использование точного потока : Да
Отключение кэша аудио : Да
Использование указателей C2 : Нет

Коррекция смещения при чтении : 6
Способность читать области Lead-in и Lead-out : Нет
Заполнение пропущенных сэмплов тишиной : Да
Удаление блоков с тишиной в начале и конце : Нет
При вычислениях CRC использовались нулевые сэмплы : Да
Интерфейс : Встроенный Win32-интерфейс для Win NT/2000

Выходной формат : Пользовательский кодировщик
Выбранный битрейт : 1024 kBit/s
Качество : Высокий
Добавление ID3-тега : Нет
Утилита сжатия : C:\Program Files (x86)\Exact Audio Copy\FLAC\FLAC.EXE
Дополнительные параметры : -6 -V -T "ARTIST=%artist%" -T "TITLE=%title%" -T "ALBUM=%albumtitle%" -T "DATE=%year%" -T "TRACKNUMBER=%tracknr%" -T "GENRE=%genre%" -T "COMMENT=%comment%" -T "BAND=%albuminterpret%" -T "ALBUMARTIST=%albuminterpret%" -T "COMPOSER=%composer%" %haslyrics%–tag-from-file=LYRICS="%lyricsfile%"%haslyrics% -T "DISCNUMBER=%cdnumber%" -T "TOTALDISCS=%totalcds%" -T "TOTALTRACKS=%numtracks%" %hascover%–picture="%coverfile%"%hascover% %source% -o %dest%


TOC извлечённого CD

Трек | Старт | Длительность | Начальный сектор | Конечный сектор
––––––––––––––––––––––––––––––––––-
1 | 0:00.37 | 3:58.00 | 37 | 17886
2 | 3:58.37 | 3:57.28 | 17887 | 35689
3 | 7:55.65 | 4:31.22 | 35690 | 56036
4 | 12:27.12 | 4:28.58 | 56037 | 76194
5 | 16:55.70 | 4:44.32 | 76195 | 97526
6 | 21:40.27 | 3:39.55 | 97527 | 114006
7 | 25:20.07 | 4:03.50 | 114007 | 132281
8 | 29:23.57 | 3:58.23 | 132282 | 150154
9 | 33:22.05 | 4:07.35 | 150155 | 168714
10 | 37:29.40 | 3:39.47 | 168715 | 185186
11 | 41:09.12 | 4:24.00 | 185187 | 204986


Характеристики диапазона извлечения и сообщения об ошибках

Выбранный диапазон

Имя файла G:\RIP\Amy Wolter 1994 FLAC by alzal\Amy Wolter - Hit Me In the Heart (7011514023).wav

Пиковый уровень 100.0 %
Скорость извлечения 3.1 X
Качество диапазона 100.0 %
CRC теста 5F1950DE
CRC копии 5F1950DE
Копирование… OK

Ошибок не произошло


AccurateRip: сводка

Трек 1 : извлечено точно (доверие 4) [E39B1B4C] (AR v2)
Трек 2 : извлечено точно (доверие 5) [89115F72] (AR v2)
Трек 3 : извлечено точно (доверие 5) [B8E8F8E4] (AR v2)
Трек 4 : извлечено точно (доверие 5) [99901821] (AR v2)
Трек 5 : извлечено точно (доверие 5) [4DC17EEA] (AR v2)
Трек 6 : извлечено точно (доверие 5) [EAD49FAE] (AR v2)
Трек 7 : извлечено точно (доверие 5) [283F8F4C] (AR v2)
Трек 8 : извлечено точно (доверие 5) [E2EEBA77] (AR v2)
Трек 9 : извлечено точно (доверие 5) [5F0ADEE4] (AR v2)
Трек 10 : извлечено точно (доверие 5) [53DCDD1B] (AR v2)
Трек 11 : извлечено точно (доверие 5) [8F35C354] (AR v2)

Все треки извлечены точно

Конец отчёта

–– CUETools DB Plugin V2.1.6

[CTDB TOCID: QR4a3X90Yppc3Q6WQhbRUSMsxno-] found
Submit result: QR4a3X90Yppc3Q6WQhbRUSMsxno- has been confirmed
Track | CTDB Status
1 | (4/4) Accurately ripped
2 | (4/4) Accurately ripped
3 | (4/4) Accurately ripped
4 | (4/4) Accurately ripped
5 | (4/4) Accurately ripped
6 | (4/4) Accurately ripped
7 | (4/4) Accurately ripped
8 | (4/4) Accurately ripped
9 | (4/4) Accurately ripped
10 | (4/4) Accurately ripped
11 | (4/4) Accurately ripped


==== Контрольная сумма отчёта 303F3F55109712C28456CD98FF5ED27598E29D6D5683CF733571974A58BB4691 ====

––––––––––––––––––––––––––––––––––––––––
Analyzed: Amy Wolter / Hit Me In The Heart (7011514023)
––––––––––––––––––––––––––––––––––––––––

DR Peak RMS Duration Track
––––––––––––––––––––––––––––––––––––––––
DR10 -0.08 dB -12.52 dB 3:58 01-There Won't Be A Next Time
DR10 -0.14 dB -11.99 dB 3:57 02-Blue Skies
DR10 -0.16 dB -11.93 dB 4:31 03-Oils On This Canvas
DR10 -0.08 dB -11.21 dB 4:29 04-Two Worlds
DR10 -0.07 dB -12.87 dB 4:44 05-We All Need
DR9 -0.19 dB -11.39 dB 3:40 06-Break My Fall
DR10 -0.05 dB -11.78 dB 4:04 07-New Start
DR10 -0.13 dB -11.63 dB 3:58 08-The Promise
DR10 -0.13 dB -11.52 dB 4:07 09-Don't Seem Right
DR10 0.00 dB -11.82 dB 3:40 10-Be That Child
DR9 -1.13 dB -12.38 dB 4:24 11-Where My Heart Is
––––––––––––––––––––––––––––––––––––––––

Number of tracks: 11
Official DR value: DR10

Samplerate: 44100 Hz
Channels: 2
Bits per sample: 16
Bitrate: 1011 kbps
Codec: FLAC
================================================================================

Thanks to alzal

♫~Welcome To My Blog~♫

password: BlondStyle