Subcategories

Anastasia Khitruk, Andrey Tchekmazov, Dmitry Yablonsky - Miklos Rozsa: Violin Concerto, Sinfonia Concertante (2007)

Posted By: tirexiss
Anastasia Khitruk, Andrey Tchekmazov, Dmitry Yablonsky - Miklos Rozsa: Violin Concerto, Sinfonia Concertante (2007)

Anastasia Khitruk, Andrey Tchekmazov, Dmitry Yablonsky - Miklos Rozsa: Violin Concerto, Sinfonia Concertante (2007)
EAC | APE (image+.cue, log) | Covers Included | 01:05:38 | 280 MB
Genre: Classical | Label: Naxos | Catalog: 8570350

Miklos Rózsa arrived in Hollywood in 1940 after study in Leipzig and a stint in Paris where Arthur Honegger encouraged him to compose music for films. In California he found a strong community of expatriate composers including Stravinsky, Schoenberg and Korngold, and some of the finest instrumental soloists then active, including Heifetz, Rubinstein and Piatigorsky. By the time he renewed his contract with MGM in 1952, his reputation was such that he was able to demand an unprecedented three months off per year to compose concert music. The first fruits of this arrangement came in the form of a violin concerto, written for Jascha Heifetz. Although the work was completed in the summer of 1952, Heifetz would not play the premiere until 1956 in Dallas. Enthusiastically received, it would soon be recorded by RCA, and this recording was to remain alone in the catalogue for nearly forty years.
Unlike the concerto by his colleague Erich Wolfgang Korngold - also written for Heifetz - Rózsa’s work is far more harmonically adventuresome, though not without considerable episodes of soaring lyricism, particularly in the elegant and airy second movement. Korngold, whose music tended toward an ultra-romanticism à la Richard Strauss, eschewed some of the tangier dissonances employed by Rózsa. One can perhaps attribute the difference in style to the fact that Rózsa grew up in Hungary, whose folk music tradition was considerably more rustic than that of Korngold’s Vienna. Regardless of his sources, Rózsa creates an austere, almost wintry landscape with his music, music that is tautly composed, carefully structured and gracefully assembled. Even in the rather aggressive and stark final movement, Rózsa spins one colorful melody after and other around a punchy and rhythmic accompaniment long on brass interjections and percussive effects from all sections of the orchestra, drums included.
Anastasia Khitruk is an able successor to Heifetz, exhibiting both ample virtuosity and a warm singing tone that is both thrilling and engaging. She plays passionately and yet always in firm control over her emotions, bring the listener often to the edge of his chair without ever dumping him on the floor. Dmitry Yablonsky leads a finely tuned and rhythmically precise Russian Philharmonic Orchestra. The refined brass playing, not often a hallmark of Russian orchestras is not only refreshing but highly exhilarating. Balance between soloist and orchestra is fine, and the recording has the perfect combination of rich tone and clarity.
The composer’s experience with his Sinfonia Concertante was not nearly as happy. Originally proposed by Piatigorsky, the completed work was considered unsatisfactory by the performers - particularly Heifetz - and the two dedicatees played only a considerably reworked second movement. The work would not see a full performance until some time later in Chicago, where it was deemed over-long and again met with a number of revisions before reaching the form that is heard in this recording.
Considerably richer in texture than the violin concerto, the composer’s Hungarian roots are very evident in the melodies with their angular rhythms and acerbic harmonies. One can almost taste the goulash in the wonderfully pungent theme and variations, and yet, when the music needs a moment of repose, Rózsa weaves in a lush romantic theme worthy of any of his film scores. The work concludes with a heavy brass and percussion laden finale, set out in contrast to the fleet passage work of the soloists.
Ms. Khitruk is joined by an able and expressive partner in Andrey Tchekmazov whose thick-fingered tone and versatile range of expression serve the music well. There is a good deal of audible sniffing and snorting from the soloist(s) in this work that is not present in the Violin Concerto, a habit that this writer has always found unnecessary, distracting and indeed downright annoying. Mr. Yablonsky delivers the same kind of tight ensemble playing, coupled with a warm unified string sound that he gave in the Violin Concerto.
To summarize, these are works of high artistic merit and one can hope that they will appear more often in the concert halls of the world, particularly the violin concerto. – Kevin Sutton

Anastasia Khitruk, Andrey Tchekmazov, Dmitry Yablonsky - Miklos Rozsa: Violin Concerto, Sinfonia Concertante (2007)

Track List:

01-03 - Violin Concerto, Op. 24
04-06 - Sinfonia Concertante for Violin, Cello and Orchestra, Op. 29

Performers:
Anastasia Khitruk - violin,
Andrey Tchekmazov - cello (04-06),
Russian Philharmonic Orchestra
Dmitry Yablonsky, conductor

Exact Audio Copy V0.99 prebeta 5 from 4. May 2009

EAC extraction logfile from 12. September 2009, 19:28

Dmitry Yablonsky: Russian Philharmonic Orchestra / ROZSA: Violin Concerto / Sinfonia Concertante

Used drive : PIONEER DVD-RW DVR-216D Adapter: 1 ID: 0

Read mode : Secure
Utilize accurate stream : Yes
Defeat audio cache : Yes
Make use of C2 pointers : No

Read offset correction : 96
Overread into Lead-In and Lead-Out : No
Fill up missing offset samples with silence : Yes
Delete leading and trailing silent blocks : No
Null samples used in CRC calculations : Yes
Used interface : Native Win32 interface for Win NT & 2000

Used output format : Internal WAV Routines
Sample format : 44.100 Hz; 16 Bit; Stereo


TOC of the extracted CD

Track | Start | Length | Start sector | End sector
––––––––––––––––––––––––––––-
1 | 0:00.00 | 13:27.39 | 0 | 60563
2 | 13:27.39 | 9:38.29 | 60564 | 103942
3 | 23:05.68 | 8:53.06 | 103943 | 143923
4 | 31:58.74 | 10:48.02 | 143924 | 192525
5 | 42:47.01 | 13:33.00 | 192526 | 253500
6 | 56:20.01 | 9:17.74 | 253501 | 295349


Range status and errors

Selected range

Filename C:\Documents and Settings\GJ\Мои документы\Temporary\Rozsa\cd.wav

Peak level 98.8 %
Range quality 99.9 %
Copy CRC 62B4090B
Copy OK

No errors occurred


AccurateRip summary

Track 1 accurately ripped (confidence 1) [449F90A4]
Track 2 accurately ripped (confidence 1) [F065C38E]
Track 3 accurately ripped (confidence 1) [01F22A18]
Track 4 accurately ripped (confidence 1) [E3D0C7B1]
Track 5 accurately ripped (confidence 1) [C675A5BB]
Track 6 accurately ripped (confidence 1) [4E6FC16E]

All tracks accurately ripped

End of status report

[CUETools log; Date: 11.11.2017 18:56:15; Version: 2.1.5]
[CTDB TOCID: MdHZhdEFcykFCN5zP5k.A.N95CI-] found.
Track | CTDB Status
1 | (5/5) Accurately ripped
2 | (5/5) Accurately ripped
3 | (5/5) Accurately ripped
4 | (5/5) Accurately ripped
5 | (5/5) Accurately ripped
6 | (5/5) Accurately ripped
[AccurateRip ID: 001004d0-0054d5bc-580f6206] found.
Track [ CRC | V2 ] Status
01 [449f90a4|a83693b5] (03+07/10) Accurately ripped
02 [f065c38e|eb20730a] (03+07/10) Accurately ripped
03 [01f22a18|94cc8058] (03+07/10) Accurately ripped
04 [e3d0c7b1|5e001698] (03+07/10) Accurately ripped
05 [c675a5bb|21b95619] (03+07/10) Accurately ripped
06 [4e6fc16e|7c9a31f4] (03+07/10) Accurately ripped

Track Peak [ CRC32 ] [W/O NULL] [ LOG ]
– 98,8 [62B4090B] [EF769DAF] CRC32
01 98,8 [C3A80F9E] [6489786E]
02 73,9 [F8D6EE5D] [C0C648FC]
03 96,6 [F45149E4] [9BCD11C5]
04 97,5 [6A6979A0] [D0F0EE42]
05 94,7 [3B7C6F25] [75954EAF]
06 97,4 [29A81681] [6AD8A227]

Thanks to the Original ripper (unknown)!

Download: