Subcategories

Andrew Lawrence-King, The Harp Consort - Gautier de Coincy: Miracles of Notre-Dame (2003)

Posted By: ArlegZ
Andrew Lawrence-King, The Harp Consort - Gautier de Coincy: Miracles of Notre-Dame (2003)

Andrew Lawrence-King, The Harp Consort - Gautier de Coincy: Miracles of Notre-Dame (2003)
EAC | FLAC | Image (Cue & Log) ~ 359 Mb | Total time: 70:07 | Scans included
Classical | Label: Harmonia Mundi | HMU 907317 | Recorded: 1999

Thirteenth-century troubador Gautier de Coincy's blend of mystical religious poetry and the popular tunes to which he set his poems proves irresistible, especially in the Harp Consort's lively renditions. Given the nature of the material, the sheer variety of rhythms, sounds, and colors on this disc is astounding; the vocal soloists are all excellent, the small chorus adept, captivating when it sings in the gutsy peasant style at appropriate moments. Eight purely instrumental numbers are sprinkled throughout the 20 tracks, each a gem, full of colorful effects from the rich-sounding shawm and other period instruments like bagpipe, vielle, and a variety of percussion instruments that thump and shimmer in ways that make you want to dance. Pleasure is enhanced by Harmonia Mundi's deluxe presentation: absorbing notes, texts, and translations in readable type, and handsome cardboard packaging. Best of all, you-are-there engineering helps transport you back through time.
–Dan Davis

Performer:
The Harp Consort
Andrew Lawrence-King, director

Track List:
01. Cui donrai je mes amours
02. Amours qui bien set enchanter (instrumental)
03. Hui matin a l'ajournee
04. Douce dame (instrumental)
05. Ma viele
06. Efforcier m'estuet ma voiz (instrumental)
07. Cui donrai je mes amours
08. Quant ces flouretes florir voi (instrumental)
09. Puisque voi la fleur novele
10. D'une amour quoie et serie (instrumental)
11. Conductus: De la sainte Leocade
12. Talenz m'est pris orendroit (instrumental)
13. Pour Dieu (instrumental)
14. Hyer matin a l’enjornee (The Art of the Trouvères, Northern France, 12th & 13th c.)
15. Motet: Benedicamus Domino
16. Ja pour yver
17. Amours dont sui espris (instrumental)
18. Royne celestre
19. Conductus: S'amours dont sui espris
20. Entendez tuit ensemble


Exact Audio Copy V1.3 from 2. September 2016

EAC extraction logfile from 15. February 2020, 16:56

The Harp Consort / Miracles of Notre-Dame

Used drive : HL-DT-STBD-RE WH16NS40 Adapter: 1 ID: 0

Read mode : Secure
Utilize accurate stream : Yes
Defeat audio cache : Yes
Make use of C2 pointers : No

Read offset correction : 6
Overread into Lead-In and Lead-Out : No
Fill up missing offset samples with silence : Yes
Delete leading and trailing silent blocks : No
Null samples used in CRC calculations : Yes
Used interface : Native Win32 interface for Win NT & 2000

Used output format : User Defined Encoder
Selected bitrate : 1024 kBit/s
Quality : High
Add ID3 tag : No
Command line compressor : C:\Program Files (x86)\Exact Audio Copy\FLAC\FLAC.EXE
Additional command line options : -6 -V -T "ARTIST=%artist%" -T "TITLE=%title%" -T "ALBUM=%albumtitle%" -T "DATE=%year%" -T "TRACKNUMBER=%tracknr%" -T "GENRE=%genre%" -T "COMMENT=%comment%" -T "BAND=%albuminterpret%" -T "ALBUMARTIST=%albuminterpret%" -T "COMPOSER=%composer%" %haslyrics%–tag-from-file=LYRICS="%lyricsfile%"%haslyrics% -T "DISCNUMBER=%cdnumber%" -T "TOTALDISCS=%totalcds%" -T "TOTALTRACKS=%numtracks%" %hascover%–picture="%coverfile%"%hascover% %source% -o %dest%


TOC of the extracted CD

Track | Start | Length | Start sector | End sector
––––––––––––––––––––––––––––-
1 | 0:00.00 | 0:21.22 | 0 | 1596
2 | 0:21.22 | 2:17.65 | 1597 | 11936
3 | 2:39.12 | 8:22.35 | 11937 | 49621
4 | 11:01.47 | 3:18.15 | 49622 | 64486
5 | 14:19.62 | 3:32.35 | 64487 | 80421
6 | 17:52.22 | 1:51.35 | 80422 | 88781
7 | 19:43.57 | 0:14.70 | 88782 | 89901
8 | 19:58.52 | 1:57.45 | 89902 | 98721
9 | 21:56.22 | 0:39.03 | 98722 | 101649
10 | 22:35.25 | 1:47.22 | 101650 | 109696
11 | 24:22.47 | 1:15.10 | 109697 | 115331
12 | 25:37.57 | 1:28.48 | 115332 | 121979
13 | 27:06.30 | 0:57.67 | 121980 | 126321
14 | 28:04.22 | 0:54.43 | 126322 | 130414
15 | 28:58.65 | 1:02.32 | 130415 | 135096
16 | 30:01.22 | 13:34.25 | 135097 | 196171
17 | 43:35.47 | 2:17.23 | 196172 | 206469
18 | 45:52.70 | 9:28.57 | 206470 | 249126
19 | 55:21.52 | 1:13.38 | 249127 | 254639
20 | 56:35.15 | 13:32.17 | 254640 | 315556


Range status and errors

Selected range

Filename C:\Users\Grant\Desktop\The Harp Consort - Miracles of Notre-Dame.wav

Peak level 98.8 %
Extraction speed 8.5 X
Range quality 99.9 %
Test CRC 16819372
Copy CRC 16819372
Copy OK

No errors occurred


AccurateRip summary

Track 1 accurately ripped (confidence 13) [B89D42FE] (AR v2)
Track 2 accurately ripped (confidence 13) [86EB6E5F] (AR v2)
Track 3 accurately ripped (confidence 13) [90B988DF] (AR v2)
Track 4 accurately ripped (confidence 13) [D0408F95] (AR v2)
Track 5 accurately ripped (confidence 13) [A69EAF40] (AR v2)
Track 6 accurately ripped (confidence 13) [21B8AD12] (AR v2)
Track 7 accurately ripped (confidence 13) [AD4FF506] (AR v2)
Track 8 accurately ripped (confidence 13) [CA7B5C40] (AR v2)
Track 9 accurately ripped (confidence 13) [956DEF48] (AR v2)
Track 10 accurately ripped (confidence 13) [DCE8B939] (AR v2)
Track 11 accurately ripped (confidence 13) [B8F8601A] (AR v2)
Track 12 accurately ripped (confidence 13) [D4F4B9D3] (AR v2)
Track 13 accurately ripped (confidence 13) [7AB8BC4A] (AR v2)
Track 14 accurately ripped (confidence 13) [EC054C8D] (AR v2)
Track 15 accurately ripped (confidence 13) [D6D8A1E7] (AR v2)
Track 16 accurately ripped (confidence 13) [096373F8] (AR v2)
Track 17 accurately ripped (confidence 13) [2C83D2FC] (AR v2)
Track 18 accurately ripped (confidence 13) [AA6C4AB4] (AR v2)
Track 19 accurately ripped (confidence 13) [30FD7C76] (AR v2)
Track 20 accurately ripped (confidence 13) [9900C17A] (AR v2)

All tracks accurately ripped

End of status report

–– CUETools DB Plugin V2.1.6

[CTDB TOCID: 1Gbw71j5V4aHICJVsjqFZNLHZCE-] found
Submit result: 1Gbw71j5V4aHICJVsjqFZNLHZCE- has been confirmed
Track | CTDB Status
1 | (20/20) Accurately ripped
2 | (20/20) Accurately ripped
3 | (20/20) Accurately ripped
4 | (20/20) Accurately ripped
5 | (20/20) Accurately ripped
6 | (20/20) Accurately ripped
7 | (20/20) Accurately ripped
8 | (19/20) Accurately ripped
9 | (20/20) Accurately ripped
10 | (20/20) Accurately ripped
11 | (20/20) Accurately ripped
12 | (20/20) Accurately ripped
13 | (20/20) Accurately ripped
14 | (20/20) Accurately ripped
15 | (20/20) Accurately ripped
16 | (20/20) Accurately ripped
17 | (20/20) Accurately ripped
18 | (20/20) Accurately ripped
19 | (20/20) Accurately ripped
20 | (20/20) Accurately ripped


==== Log checksum B81CEBA1330F0047FF3B28C1CFB968AB3E49542B7B27CFF078F3C4C522F8C4FD ====

Andrew Lawrence-King, The Harp Consort - Gautier de Coincy: Miracles of Notre-Dame (2003)

Thanks to the original releaser