Tags
Language
Tags

Anima Eterna, Jos van Immerseel - Johann Strauss: Waltzes, Polkas & Overtures (2012)

Posted By: tirexiss
Anima Eterna, Jos van Immerseel - Johann Strauss: Waltzes, Polkas & Overtures (2012)

Anima Eterna, Jos van Immerseel - Johann Strauss: Waltzes, Polkas & Overtures (2012)
EAC | FLAC (image+.cue, log) | Covers Included | 01:10:25 | 336 MB
Genre: Classical | Label: Outhere | Catalog: REW505

The music of Johann Strauss reflects an elegance and refinement typical of Vienna. It inspires us with a joie de vivre and an almost irresistible urge to dance. The ensemble Anima Eterna Brugge and its conductor, Jos van Immerseel, invite us to spend a delightful moment in Strauss’s company and theirs, with delicacy and feeling, conviction and emotion. Keeping as close as possible to the original score, they enable us to hear these pieces as they were intended by the composer.

Anima Eterna, Jos van Immerseel - Johann Strauss: Waltzes, Polkas & Overtures (2012)

Track List:

Johann Strauss II (1825-1899)

01. Tritsch-Tratsch-Polka, Op. 214 (RV 214)
02. Die Fledermaus, overture to the operetta (RV 503-1)
03. Csárdás (RV 503-9)
04. Nordseebilder, waltz, Op. 390 (RV 390)
05. Im Sturmschritt!, polka schnell, Op. 348 (RV 348)
06. Neue-Pizzicato-Polka, Op. 449 (RV 449)
07. Perpetuum Mobile, Op. 257 (RV 257)
08. Frühlingsstimmen, waltz, Op. 410 (RV 410)
09. Der Zigeunerbaron, overture to the operetta
10. An der schönen, blauen Donau, waltz, Op. 314 (RV 314)
11. Ägyptischer, march, Op. 335 (RV 335)
12. Éljen a Magyar, polka schnell, Op. 332 (RV 332)
13. Furioso-Polka, Op. 260 (RV 260)

Performers:
Anima Eterna [on period instruments]
Jos van Immerseel – conductor

Exact Audio Copy V1.0 beta 3 from 29. August 2011

EAC extraction logfile from 14. October 2013, 11:16

Anima Eterna Orchestra / Johann Strauss - Waltzes, Polkas, Overtures - Jos van Immerseel

Used drive : TSSTcorpCDDVDW SH-222BB Adapter: 2 ID: 1

Read mode : Secure
Utilize accurate stream : Yes
Defeat audio cache : Yes
Make use of C2 pointers : No

Read offset correction : 6
Overread into Lead-In and Lead-Out : No
Fill up missing offset samples with silence : Yes
Delete leading and trailing silent blocks : No
Null samples used in CRC calculations : Yes
Used interface : Native Win32 interface for Win NT & 2000

Used output format : User Defined Encoder
Selected bitrate : 1024 kBit/s
Quality : High
Add ID3 tag : No
Command line compressor : C:\Program Files\Exact Audio Copy\Flac\flac.exe
Additional command line options : -8 -V -T "TITLE=%title%" -T "ARTIST=%artist%" -T "ALBUMARTIST=%albumartist%" -T "ALBUM=%albumtitle%" -T "DATE=%year%" -T "TRACKNUMBER=%tracknr%" -T "TRACKTOTAL=%numtracks%" -T "GENRE=%genre%" -T "COMMENT=%comment%" -T "PERFORMER=%albuminterpret%" -T "COMPOSER=%composer%" %source% -o %dest%


TOC of the extracted CD

Track | Start | Length | Start sector | End sector
––––––––––––––––––––––––––––-
1 | 0:00.00 | 2:51.45 | 0 | 12869
2 | 2:51.45 | 8:31.60 | 12870 | 51254
3 | 11:23.30 | 4:46.45 | 51255 | 72749
4 | 16:10.00 | 9:27.52 | 72750 | 115326
5 | 25:37.52 | 2:20.58 | 115327 | 125884
6 | 27:58.35 | 2:58.67 | 125885 | 139301
7 | 30:57.27 | 2:57.40 | 139302 | 152616
8 | 33:54.67 | 6:45.58 | 152617 | 183049
9 | 40:40.50 | 8:12.45 | 183050 | 219994
10 | 48:53.20 | 10:57.55 | 219995 | 269324
11 | 59:51.00 | 5:11.32 | 269325 | 292681
12 | 65:02.32 | 2:55.23 | 292682 | 305829
13 | 67:57.55 | 2:35.07 | 305830 | 317461


Range status and errors

Selected range

Filename G:\Ripped general\[8452] Johann Strauss – Waltzes, Polkas, Overtures – Jos van Immerseel\Johann Strauss - Waltzes, Polkas, Overtures - Jos van Immerseel.wav

Peak level 99.9 %
Extraction speed 8.0 X
Range quality 100.0 %
Test CRC A05905BB
Copy CRC A05905BB
Copy OK

No errors occurred


AccurateRip summary

Track 1 cannot be verified as accurate (confidence 6) [FBCB6457], AccurateRip returned [F1BF4552] (AR v2)
Track 2 cannot be verified as accurate (confidence 6) [AEEA1DB6], AccurateRip returned [DB1E3A3B] (AR v2)
Track 3 cannot be verified as accurate (confidence 6) [6D108147], AccurateRip returned [3E14368E] (AR v2)
Track 4 cannot be verified as accurate (confidence 5) [F79AE3D3], AccurateRip returned [EAAF3047] (AR v2)
Track 5 cannot be verified as accurate (confidence 5) [7175033F], AccurateRip returned [95762D3F] (AR v2)
Track 6 cannot be verified as accurate (confidence 5) [155E34A6], AccurateRip returned [7239EB1C] (AR v2)
Track 7 cannot be verified as accurate (confidence 5) [F0BD3FA3], AccurateRip returned [CE5E62E0] (AR v2)
Track 8 cannot be verified as accurate (confidence 5) [E7C78D85], AccurateRip returned [2436CDDF] (AR v2)
Track 9 cannot be verified as accurate (confidence 5) [88472E98], AccurateRip returned [3CDE973B] (AR v2)
Track 10 cannot be verified as accurate (confidence 5) [D1D1590F], AccurateRip returned [0936DA10] (AR v2)
Track 11 cannot be verified as accurate (confidence 5) [58A2422D], AccurateRip returned [C9DEB2FD] (AR v2)
Track 12 cannot be verified as accurate (confidence 5) [4BFB0CF5], AccurateRip returned [B7E5C86C] (AR v2)
Track 13 cannot be verified as accurate (confidence 5) [AD3DDA58], AccurateRip returned [9F1E0921] (AR v2)

No tracks could be verified as accurate
You may have a different pressing from the one(s) in the database

End of status report

Thanks to the Original ripper (unknown)!

Welcome to my blog!

Download: