Tags
Language
Tags

Ann Hallenberg, Riccardo Minasi, Il pomo d’Oro - Agrippina: Graun, Handel, Perti, Porpora (2015)

Posted By: ArlegZ
Ann Hallenberg, Riccardo Minasi, Il pomo d’Oro - Agrippina: Graun, Handel, Perti, Porpora (2015)

Ann Hallenberg, Riccardo Minasi, Il pomo d’Oro - Agrippina: Graun, Händel, Perti, Porpora (2015)
EAC | FLAC | Image (Cue & Log) ~ 442 Mb | Total time: 74:54 | Scans included
Classical | Label: Deutsche Harmonia Mundi | # 88875055982 | Recorded: 2014

The programme presented by Ann Hallenberg for DHM is a homage to the historical roman figure of Agrippina, one of the earliest historical women to inspire the fantasy of librettists and composers. Ann Hallenberg and a team of musicologists researched the musical archives to unearth all surviving operatic manuscripts containing the figure of Agrippina. Twelve of the arias are WORLD PREMIERE RECORDINGS. Apart from Handel’s famous opera ‘Agrippina’ and Telemann’s ‘Germanicus’, all music on this album has been recorded for the first time. This album is also a fascinating journey through the history of baroque opera. The earliest piece, Legrenzi’s ‘Germanico sul Reno’ dates from 1676 and is a typical example of early baroque style. The latest work, Graun’s ‘Britannico’ from 1752, was written only four years before the birth of Mozart, at the very end of the musical baroque period.

Performer:
Ann Hallenberg, mezzo-soprano
Il pomo d’Oro
Riccardo Minasi, conductor

Track List:
Giacomo Antonio PERTI (1661-1756)
01. Date all’armi o spirit fieri (Nerone fatto Cesare, 1693)
Nicola Antonio PORPORA (1686-1768)
02. Mormorando anch’il ruschello (L’Agrippina, 1708)
03. Con troppo fiere immagini (L’Agrippina, 1708)
Carl Heinrich GRAUN (1704-1759)
04. Se la mia vita, o figlio (Britannico, 1751)
05. Mi paventi il figlio indegno (Britannico, 1751)
Giuseppe Maria ORLANDINI (c.1675-1760)
06. Tutta furie e tutta sdegno (Nerone, 1721)
Johann MATTHESON (1681-1764)
07. Giàtutto valore (Nero, 1723)
Georg Friedrich HÄNDEL (1685-1759)
08. Ogni vento (Agrippina, 1709)
09. Pensieri, voi mi tormentate (Agrippina, 1709)
10. L’alma mia fra le tempeste (Agrippina, 1709)
Georg Philipp TELEMANN (1681-1767)
11. Rimembranza crudel (Germanicus, 1704-10)
Paolo Giuseppe MAGNI (c.1650-1737)
12. Date all’armi o spirit fieri (Nerone Infante, 1703)
Giovanni Battista SAMMARTINI (1701-1775)
13. Non ho più vele (Agrippina moglie di Tiberio, 1743)
14. Deh, lasciami in pace (Agrippina moglie di Tiberio, 1743)
Giovanni LEGRENZI (1626-1690)
15. O soave tormenti dell’alma (Germanico sul Reno, 1676)
Giacomo Antonio PERTI (1661-1756)
16. Questo brando, questo folgore (Nerone fatto Cesare, 1693)


Exact Audio Copy V1.3 from 2. September 2016

EAC extraction logfile from 9. August 2019, 17:10

Ann Hallenberg, Riccardo Minasi / Agrippina [Graun, Handel, Perti, Porpora, Telemann, Sammartini, Legrenzi]

Used drive : ATAPI iHAS124 F Adapter: 1 ID: 0

Read mode : Secure
Utilize accurate stream : Yes
Defeat audio cache : Yes
Make use of C2 pointers : No

Read offset correction : 6
Overread into Lead-In and Lead-Out : No
Fill up missing offset samples with silence : Yes
Delete leading and trailing silent blocks : No
Null samples used in CRC calculations : Yes
Used interface : Native Win32 interface for Win NT & 2000

Used output format : User Defined Encoder
Selected bitrate : 1024 kBit/s
Quality : High
Add ID3 tag : No
Command line compressor : C:\Program Files (x86)\Exact Audio Copy\FLAC\FLAC.EXE
Additional command line options : -6 -V -T "ARTIST=%artist%" -T "TITLE=%title%" -T "ALBUM=%albumtitle%" -T "DATE=%year%" -T "TRACKNUMBER=%tracknr%" -T "GENRE=%genre%" -T "COMMENT=%comment%" -T "BAND=%albuminterpret%" -T "ALBUMARTIST=%albuminterpret%" -T "COMPOSER=%composer%" %haslyrics%–tag-from-file=LYRICS="%lyricsfile%"%haslyrics% -T "DISCNUMBER=%cdnumber%" -T "TOTALDISCS=%totalcds%" -T "TOTALTRACKS=%numtracks%" %hascover%–picture="%coverfile%"%hascover% %source% -o %dest%


TOC of the extracted CD

Track | Start | Length | Start sector | End sector
––––––––––––––––––––––––––––-
1 | 0:00.00 | 3:58.33 | 0 | 17882
2 | 3:58.33 | 4:39.38 | 17883 | 38845
3 | 8:37.71 | 3:54.42 | 38846 | 56437
4 | 12:32.38 | 8:36.54 | 56438 | 95191
5 | 21:09.17 | 8:00.05 | 95192 | 131196
6 | 29:09.22 | 3:20.12 | 131197 | 146208
7 | 32:29.34 | 2:49.42 | 146209 | 158925
8 | 35:19.01 | 4:43.42 | 158926 | 180192
9 | 40:02.43 | 6:31.23 | 180193 | 209540
10 | 46:33.66 | 2:35.46 | 209541 | 221211
11 | 49:09.37 | 6:56.34 | 221212 | 252445
12 | 56:05.71 | 3:03.20 | 252446 | 266190
13 | 59:09.16 | 5:55.33 | 266191 | 292848
14 | 65:04.49 | 5:28.64 | 292849 | 317512
15 | 70:33.38 | 1:34.07 | 317513 | 324569
16 | 72:07.45 | 2:43.69 | 324570 | 336863


Range status and errors

Selected range

Filename C:\EACRip\RÓŻNE\Agrippina [Graun, Handel, Perti, Porpora, Telemann, Sammartini, Legrenzi] (Ann Hallenberg, Riccardo Minasi) (2015)\Agrippina - Ann Hallenberg, Riccardo Minasi.wav

Peak level 97.3 %
Extraction speed 9.8 X
Range quality 100.0 %
Test CRC 06987C45
Copy CRC 06987C45
Copy OK

No errors occurred


AccurateRip summary

Track 1 accurately ripped (confidence 8) [8E6751FB] (AR v2)
Track 2 accurately ripped (confidence 7) [2396E250] (AR v2)
Track 3 accurately ripped (confidence 7) [611A8FD2] (AR v2)
Track 4 accurately ripped (confidence 7) [A702BC60] (AR v2)
Track 5 accurately ripped (confidence 7) [49B50542] (AR v2)
Track 6 accurately ripped (confidence 8) [7B3E704F] (AR v2)
Track 7 accurately ripped (confidence 8) [E6148B6D] (AR v2)
Track 8 accurately ripped (confidence 7) [3E59E2CA] (AR v2)
Track 9 accurately ripped (confidence 7) [EA4B6CB9] (AR v2)
Track 10 accurately ripped (confidence 7) [7B826AF1] (AR v2)
Track 11 accurately ripped (confidence 8) [83B8C7AC] (AR v2)
Track 12 accurately ripped (confidence 8) [981E21A5] (AR v2)
Track 13 accurately ripped (confidence 7) [7FD7FBC4] (AR v2)
Track 14 accurately ripped (confidence 7) [980E42C5] (AR v2)
Track 15 accurately ripped (confidence 8) [31A7D03B] (AR v2)
Track 16 accurately ripped (confidence 8) [07720097] (AR v2)

All tracks accurately ripped

End of status report

–– CUETools DB Plugin V2.1.6

[CTDB TOCID: kSdNYODVUxNcSMSOm.e44eRgIfA-] found
Submit result: kSdNYODVUxNcSMSOm.e44eRgIfA- has been confirmed
Track | CTDB Status
1 | (16/16) Accurately ripped
2 | (16/16) Accurately ripped
3 | (16/16) Accurately ripped
4 | (16/16) Accurately ripped
5 | (16/16) Accurately ripped
6 | (16/16) Accurately ripped
7 | (16/16) Accurately ripped
8 | (16/16) Accurately ripped
9 | (16/16) Accurately ripped
10 | (16/16) Accurately ripped
11 | (16/16) Accurately ripped
12 | (16/16) Accurately ripped
13 | (16/16) Accurately ripped
14 | (16/16) Accurately ripped
15 | (16/16) Accurately ripped
16 | (16/16) Accurately ripped


==== Log checksum B2DE30B62AED498C77542960E31C6100588597F0F6E86E9E460E2CD7458F7094 ====

Ann Hallenberg, Riccardo Minasi, Il pomo d’Oro - Agrippina: Graun, Handel, Perti, Porpora (2015)

Thanks to the original releaser