Subcategories

Anna Netrebko - Diva: The Very Best of Anna Netrebko (2018)

Posted By: ArlegZ
Anna Netrebko - Diva: The Very Best of Anna Netrebko (2018)

Anna Netrebko - Diva: The Very Best of Anna Netrebko (2018)
EAC | FLAC | Image (Cue & Log) ~ 322 Mb | Total time: 64:59 | Scans included
Classical | Label: Deutsche Grammophon | # 483 5791 | Recorded: 2003, 2006-2008, 2015, 2016, 2018

A greatest-hits album ought to stick to the middle of the road, playing to what an artist does best. Yet it ought not simply wallow in past glories: this collection from Russian soprano Anna Netrebko, arguably the best-known soprano of the present day, hits the spot and can safely be recommended to newcomers. Netrebko is at her best in core Italian repertory like Casta Diva from Bellini's Norma or Libiamo ne 'lieti calici from Verdi's La Traviata. Sample track three to hear the latter: the soprano has an abundant tonal production that enables her to take the kind of chances that generate real charisma. Netrebko's husband, tenor Yusif Eyvazov, is present on this track, which was one of three newly recorded for the album, and there's no clearer indication of what she's about than how he stays out of her way. The album also contains verismo arias, into which Netrebko has moved as her voice has darkened in mid-career. Picking out holes in her armament is but another indicator of her dominant position, and certainly she is not as distinctive as a dramatic singer compared with her skills as a sheer tunesmith, and she has less of an instinct for French repertory than for Italian. Yet to hear her Vissi d'arte, from Tosca, is to understand why there has been such a buzz around her performances of this opera in New York and elsewhere (the recording here is with the Orchestra dell'Accademia Nazionale di Santa Cecilia under Antonio Pappano). Deutsche Grammophon does a reasonable job in fusing the various sound sources into a whole, and this is an album few new or old Netrebko fans will want to skip.
–James Manheim

Track List & Cast:
Giacomo Puccini (1858 - 1924)
Gianni Schicchi
01. O mio babbino caro
Anna Netrebko, Royal Philharmonic Orchestra, Jader Bignamini
Ernesto de Curtis (1875 - 1937)
02. Non ti scordar di me (Arr. for Soprano, Tenor and Orchestra by Giancarlo Chiaramello)
Anna Netrebko, Yusif Eyvazov, Royal Philharmonic Orchestra, Jader Bignamini
Giuseppe Verdi (1813 - 1901)
La traviata, Act 1
03.Libiamo ne'lieti calici
Anna Netrebko, Yusif Eyvazov, The City of Prague Philharmonic Choir, Miriam Nemcova, Royal Philharmonic Orchestra, Jader Bignamini
Giacomo Puccini (1858 - 1924)
Tosca, Act 2
04. Vissi d'arte, vissi d'amore
Madama Butterfly, Act 2
05. Un bel dì vedremo
Umberto Giordano (1867 - 1948)
Andrea Chénier, Act 3
06. La mamma morta
Anna Netrebko, Orchestra dell'Accademia Nazionale di Santa Cecilia, Antonio Pappano
Giacomo Puccini (1858 - 1924)
La Bohème, Act 1
07. O soave fanciulla
Anna Netrebko, Rolando Villazón, Boaz Daniel, Symphonieorchester des Bayerischen Rundfunks, Bertrand de Billy
Arrigo Boïto (1842 - 1918)
Mefistofele, Act 3
08. L'altra notte in fondo al mare
Anna Netrebko, Orchestra dell'Accademia Nazionale di Santa Cecilia, Antonio Pappano
Sergey Rachmaninov (1873 - 1943)
12 Songs, Op.21
09. Zdes? khorosho (Arr. By Michael Rot)
Anna Netrebko, Orchestra of the Mariinsky Theatre, Valery Gergiev
Igor Krutoy
10.Cantami
Anna Netrebko, Yusif Eyvazov, Session Orchestra London, Ben Foster
Edvard Grieg (1843 - 1907)
Peer Gynt, Op. 23
11. Solveig's Song
Anna Netrebko, Prague Philharmonia, Emmanuel Villaume
Wolfgang Amadeus Mozart (1756 - 1791)
Idomeneo, re di Creta, K.366, Act 1
12. Quando avran fine omai - Padre, germani, addio!
Anna Netrebko, Wiener Philharmoniker, Gianandrea Noseda, David Aronson
Léo Delibes (1836 - 1891)
Lakmé,Act 1
13. Viens, Mallika, … Dôme épais (Flower Duet)
Anna Netrebko, Elina Garanca, SWR Sinfonieorchester Baden-Baden und Freiburg, Marco Armiliato
Vincenzo Bellini (1801 - 1835)
Norma, Act 1
14. Casta Diva
Anna Netrebko, SWR Sinfonieorchester Baden-Baden und Freiburg, Marco Armiliato
Jacques Offenbach (1819 - 1880)
Les Contes d'Hoffmann,Act 2
15. Barcarolle
Anna Netrebko, Elina Garanca, Prague Philharmonia, Emmanuel Villaume, Prague Philharmonic Choir, Lukas Vasilek


Exact Audio Copy V1.3 from 2. September 2016

Отчёт EAC об извлечении, выполненном 15. ноября 2019, 20:27

Anna Netrebko / Diva - The Very Best of Anna Netrebko

Дисковод: ASUS BW-16D1H-U Adapter: 1 ID: 0

Режим чтения : Достоверность
Использование точного потока : Да
Отключение кэша аудио : Да
Использование указателей C2 : Нет

Коррекция смещения при чтении : 6
Способность читать области Lead-in и Lead-out : Нет
Заполнение пропущенных сэмплов тишиной : Да
Удаление блоков с тишиной в начале и конце : Нет
При вычислениях CRC использовались нулевые сэмплы : Да
Интерфейс : Встроенный Win32-интерфейс для Win NT/2000

Выходной формат : Пользовательский кодировщик
Выбранный битрейт : 128 kBit/s
Качество : Высокий
Добавление ID3-тега : Нет
Утилита сжатия : C:\Program Files (x86)\Exact Audio Copy 1.3\Flac\flac.exe
Дополнительные параметры : -V -8 -T "Date=%year%" -T "Genre=%genre%" %source%


TOC извлечённого CD

Трек | Старт | Длительность | Начальный сектор | Конечный сектор
––––––––––––––––––––––––––––––––––-
1 | 0:00.00 | 2:40.15 | 0 | 12014
2 | 2:40.15 | 3:43.37 | 12015 | 28776
3 | 6:23.52 | 3:03.60 | 28777 | 42561
4 | 9:27.37 | 3:28.17 | 42562 | 58178
5 | 12:55.54 | 4:33.00 | 58179 | 78653
6 | 17:28.54 | 4:59.34 | 78654 | 101112
7 | 22:28.13 | 4:12.15 | 101113 | 120027
8 | 26:40.28 | 6:55.12 | 120028 | 151164
9 | 33:35.40 | 2:27.18 | 151165 | 162207
10 | 36:02.58 | 3:44.15 | 162208 | 179022
11 | 39:46.73 | 5:03.55 | 179023 | 201802
12 | 44:50.53 | 7:22.43 | 201803 | 234995
13 | 52:13.21 | 5:10.74 | 234996 | 258319
14 | 57:24.20 | 5:51.64 | 258320 | 284708
15 | 63:16.09 | 2:37.19 | 284709 | 296502


Характеристики диапазона извлечения и сообщения об ошибках

Выбранный диапазон

Имя файла D:\EAC\New2019\Anna Netrebko - Diva - The Very Best of Anna Netrebko\Anna Netrebko - Diva - The Very Best of Anna Netrebko.wav

Пиковый уровень 98.6 %
Скорость извлечения 8.0 X
Качество диапазона 100.0 %
CRC теста 89EEC30C
CRC копии 89EEC30C
Копирование… OK

Ошибок не произошло


AccurateRip: сводка

Трек 1 : извлечено точно (доверие 4) [129B21BE] (AR v2)
Трек 2 : извлечено точно (доверие 4) [014C7737] (AR v2)
Трек 3 : извлечено точно (доверие 4) [412DD73B] (AR v2)
Трек 4 : извлечено точно (доверие 4) [82F5D047] (AR v2)
Трек 5 : извлечено точно (доверие 4) [DF9157E1] (AR v2)
Трек 6 : извлечено точно (доверие 4) [EF9031D1] (AR v2)
Трек 7 : извлечено точно (доверие 4) [5F8F82C0] (AR v2)
Трек 8 : извлечено точно (доверие 4) [EBF0F7AD] (AR v2)
Трек 9 : извлечено точно (доверие 4) [C4264269] (AR v2)
Трек 10 : извлечено точно (доверие 4) [B60BAE07] (AR v2)
Трек 11 : извлечено точно (доверие 4) [DC470D0B] (AR v2)
Трек 12 : извлечено точно (доверие 4) [5951E81D] (AR v2)
Трек 13 : извлечено точно (доверие 4) [18262792] (AR v2)
Трек 14 : извлечено точно (доверие 4) [003B7534] (AR v2)
Трек 15 : извлечено точно (доверие 4) [19C75F5A] (AR v2)

Все треки извлечены точно

Конец отчёта

–– CUETools DB Plugin V2.1.6

[CTDB TOCID: vCW6tmkq04uZ3H8DN1853l4bFC4-] found
Submit result: vCW6tmkq04uZ3H8DN1853l4bFC4- has been confirmed
Track | CTDB Status
1 | (36/36) Accurately ripped
2 | (36/36) Accurately ripped
3 | (36/36) Accurately ripped
4 | (36/36) Accurately ripped
5 | (36/36) Accurately ripped
6 | (36/36) Accurately ripped
7 | (36/36) Accurately ripped
8 | (36/36) Accurately ripped
9 | (36/36) Accurately ripped
10 | (36/36) Accurately ripped
11 | (36/36) Accurately ripped
12 | (36/36) Accurately ripped
13 | (36/36) Accurately ripped
14 | (36/36) Accurately ripped
15 | (36/36) Accurately ripped


==== Контрольная сумма отчёта D9D89EEF31FECD76582D6C14FDBCA5A136FCEE6B6E049D9BC2D0ABB63DB5A667 ====

Anna Netrebko - Diva: The Very Best of Anna Netrebko (2018)

Thanks to the original releaser