Tags
Language
Tags

Anne Pigalle - Everything Could Be So Perfect... (Deluxe Edition) (1985/2015)

Posted By: Rtax
Anne Pigalle - Everything Could Be So Perfect... (Deluxe Edition) (1985/2015)

Anne Pigalle - Everything Could Be So Perfect… (Deluxe Edition) (1985/2015)
EAC Rip | FLAC (tracks, cue, log, scans) - 745 MB
1:56:24 | Chanson, Synth-pop, Ballad | Label: Salvo

The only Eighties ZTT artist to grace the covers of both i-D and Blitz, Anne Pigalle's nouvelle vague was hailed by The Face as 'a fresh interpretation of the Piaf-Dietrich style, reviving the spirit of the popular chanteuse with new songs and synthesised music'. This 2 CD Édition Deluxe of her début album adds 7inch and 12inch versions, unreleased mixes, studio sessions and new liner notes.
The only Eighties ZTT artist to grace the covers of both i-D and Blitz, Anne Pigalle's nouvelle vague was hailed by The Face as "a fresh interpretation of the Piaf-Dietrich style, reviving the spirit of the popular chanteuse with new songs and synthesised music." This Édition Deluxe of her début album adds 7inch and 12inch versions, unreleased mixes, studio sessions and new liner notes.

Tracklist
CD 1
01. Why Does It Have To Be This Way…
02. Via Vagabond
03. Looking For Love
04. Hé Stranger
05. Intermission (The Gods Are Bored)
06. Souvenir D'Un Paris
07. A Crack In The Ocean
08. The 1000 Colours Waltz
09. Faut-Il Vraiment Que Ce Soit Comme Ça
10. Intermission (Les Dieux S'Ennuient)
11. La Valse Aux Mille Couleurs

CD 2
01. Hé Stranger (Redirected By Trevor Horn)
02. Stranger (Than Fiction)
03. Hé Stranger (Plight Return)
04. Johnny
05. Intermission (The Gods Are Bored) (Mix Aguicheur)
06. Intermission (The Gods Are Bored) (Mix Songeur)
07. Souvenir D'Un Paris (Mix Aguicheur)
08. Souvenir D'Un Paris (Mix Songeur)
09. Why Does It Have To Be This Way… (Piano Version)
10. Like We Do
11. Looking For Love (Spring '84)
12. Intermission (The Gods Are Bored) (Spring '84)
13. A Crack In The Ocean (Spring '84)
14. The 1000 Colours Waltz (Spring '84)
15. Why Does It Have To Be This Way… (Winter '84)
Exact Audio Copy V1.0 beta 3 from 29. August 2011

EAC extraction logfile from 17. June 2015, 17:58

Anne Pigalle / Everything Could Be So Perfect… (Édition Deluxe) (Disc 1)

Used drive : HL-DT-STBD-RE WH14NS40 Adapter: 0 ID: 0

Read mode : Secure
Utilize accurate stream : Yes
Defeat audio cache : Yes
Make use of C2 pointers : No

Read offset correction : 6
Overread into Lead-In and Lead-Out : No
Fill up missing offset samples with silence : Yes
Delete leading and trailing silent blocks : No
Null samples used in CRC calculations : Yes
Used interface : Native Win32 interface for Win NT & 2000
Gap handling : Appended to previous track

Used output format : User Defined Encoder
Selected bitrate : 896 kBit/s
Quality : High
Add ID3 tag : No
Command line compressor : C:\Program Files (x86)\Exact Audio Copy\Flac\flac.exe
Additional command line options : -8 -V -T "artist=%artist%" -T "title=%title%" -T "album=%albumtitle%" -T "date=%year%" -T "tracknumber=%tracknr%" -T "genre=%genre%" %source%


TOC of the extracted CD

Track | Start | Length | Start sector | End sector
––––––––––––––––––––––––––––-
1 | 0:00.00 | 4:18.34 | 0 | 19383
2 | 4:18.34 | 4:23.60 | 19384 | 39168
3 | 8:42.19 | 4:19.60 | 39169 | 58653
4 | 13:02.04 | 4:19.55 | 58654 | 78133
5 | 17:21.59 | 3:14.48 | 78134 | 92731
6 | 20:36.32 | 4:13.47 | 92732 | 111753
7 | 24:50.04 | 5:18.05 | 111754 | 135608
8 | 30:08.09 | 4:57.32 | 135609 | 157915
9 | 35:05.41 | 4:17.59 | 157916 | 177249
10 | 39:23.25 | 3:12.54 | 177250 | 191703
11 | 42:36.04 | 4:55.68 | 191704 | 213896


Track 1

Filename D:\burn\Anne Pigalle - Everything Could Be So Perfect… (Édition Deluxe) (2015) (flac)\Disc 1\01 - Anne Pigalle - Why Does It Have To Be This Way….wav

Pre-gap length 0:00:02.00

Peak level 97.7 %
Extraction speed 1.1 X
Track quality 100.0 %
Test CRC 6B45C4F4
Copy CRC 6B45C4F4
Track not present in AccurateRip database
Copy OK

Track 2

Filename D:\burn\Anne Pigalle - Everything Could Be So Perfect… (Édition Deluxe) (2015) (flac)\Disc 1\02 - Anne Pigalle - Via Vagabond.wav

Peak level 97.7 %
Extraction speed 1.2 X
Track quality 100.0 %
Test CRC C3583FAA
Copy CRC C3583FAA
Track not present in AccurateRip database
Copy OK

Track 3

Filename D:\burn\Anne Pigalle - Everything Could Be So Perfect… (Édition Deluxe) (2015) (flac)\Disc 1\03 - Anne Pigalle - Looking For Love.wav

Peak level 97.7 %
Extraction speed 1.3 X
Track quality 100.0 %
Test CRC 6455F37D
Copy CRC 6455F37D
Track not present in AccurateRip database
Copy OK

Track 4

Filename D:\burn\Anne Pigalle - Everything Could Be So Perfect… (Édition Deluxe) (2015) (flac)\Disc 1\04 - Anne Pigalle - Hé Stranger.wav

Peak level 97.7 %
Extraction speed 1.4 X
Track quality 100.0 %
Test CRC A4543024
Copy CRC A4543024
Track not present in AccurateRip database
Copy OK

Track 5

Filename D:\burn\Anne Pigalle - Everything Could Be So Perfect… (Édition Deluxe) (2015) (flac)\Disc 1\05 - Anne Pigalle - Intermission (The Gods Are Bored).wav

Peak level 97.7 %
Extraction speed 1.4 X
Track quality 100.0 %
Test CRC 2677683D
Copy CRC 2677683D
Track not present in AccurateRip database
Copy OK

Track 6

Filename D:\burn\Anne Pigalle - Everything Could Be So Perfect… (Édition Deluxe) (2015) (flac)\Disc 1\06 - Anne Pigalle - Souvenir D'Un Paris.wav

Peak level 97.4 %
Extraction speed 1.4 X
Track quality 99.9 %
Test CRC E036D7A1
Copy CRC E036D7A1
Track not present in AccurateRip database
Copy OK

Track 7

Filename D:\burn\Anne Pigalle - Everything Could Be So Perfect… (Édition Deluxe) (2015) (flac)\Disc 1\07 - Anne Pigalle - A Crack In The Ocean.wav

Peak level 97.7 %
Extraction speed 1.5 X
Track quality 99.9 %
Test CRC 0517E665
Copy CRC 0517E665
Track not present in AccurateRip database
Copy OK

Track 8

Filename D:\burn\Anne Pigalle - Everything Could Be So Perfect… (Édition Deluxe) (2015) (flac)\Disc 1\08 - Anne Pigalle - The 1000 Colours Waltz.wav

Peak level 91.7 %
Extraction speed 1.8 X
Track quality 100.0 %
Test CRC F27B65A7
Copy CRC F27B65A7
Track not present in AccurateRip database
Copy OK

Track 9

Filename D:\burn\Anne Pigalle - Everything Could Be So Perfect… (Édition Deluxe) (2015) (flac)\Disc 1\09 - Anne Pigalle - Faut-Il Vraiment Que Ce Soit Comme Ça.wav

Pre-gap length 0:00:00.39

Peak level 97.7 %
Extraction speed 1.8 X
Track quality 100.0 %
Test CRC CD27E159
Copy CRC CD27E159
Track not present in AccurateRip database
Copy OK

Track 10

Filename D:\burn\Anne Pigalle - Everything Could Be So Perfect… (Édition Deluxe) (2015) (flac)\Disc 1\10 - Anne Pigalle - Intermission (Les Dieux S'Ennuient).wav

Pre-gap length 0:00:00.22

Peak level 97.7 %
Extraction speed 1.8 X
Track quality 100.0 %
Test CRC E83F7D93
Copy CRC E83F7D93
Track not present in AccurateRip database
Copy OK

Track 11

Filename D:\burn\Anne Pigalle - Everything Could Be So Perfect… (Édition Deluxe) (2015) (flac)\Disc 1\11 - Anne Pigalle - La Valse Aux Mille Couleurs.wav

Pre-gap length 0:00:00.40

Peak level 97.7 %
Extraction speed 2.0 X
Track quality 100.0 %
Test CRC 3B30F437
Copy CRC 3B30F437
Track not present in AccurateRip database
Copy OK


None of the tracks are present in the AccurateRip database

No errors occurred

End of status report

==== Log checksum E0A1998E0D4A045F7DF8D8525CA5BEE2B129C439AC852377C45BA6A8E756CC46 ====


Exact Audio Copy V1.0 beta 3 from 29. August 2011

EAC extraction logfile from 19. June 2015, 6:48

Anne Pigalle / Everything Could Be So Perfect… (Édition Deluxe) (Disc 2)

Used drive : HL-DT-STBD-RE WH14NS40 Adapter: 0 ID: 0

Read mode : Secure
Utilize accurate stream : Yes
Defeat audio cache : Yes
Make use of C2 pointers : No

Read offset correction : 6
Overread into Lead-In and Lead-Out : No
Fill up missing offset samples with silence : Yes
Delete leading and trailing silent blocks : No
Null samples used in CRC calculations : Yes
Used interface : Native Win32 interface for Win NT & 2000
Gap handling : Appended to previous track

Used output format : User Defined Encoder
Selected bitrate : 896 kBit/s
Quality : High
Add ID3 tag : No
Command line compressor : C:\Program Files (x86)\Exact Audio Copy\Flac\flac.exe
Additional command line options : -8 -V -T "artist=%artist%" -T "title=%title%" -T "album=%albumtitle%" -T "date=%year%" -T "tracknumber=%tracknr%" -T "genre=%genre%" %source%


TOC of the extracted CD

Track | Start | Length | Start sector | End sector
––––––––––––––––––––––––––––-
1 | 0:00.00 | 7:29.17 | 0 | 33691
2 | 7:29.17 | 1:01.40 | 33692 | 38306
3 | 8:30.57 | 3:43.28 | 38307 | 55059
4 | 12:14.10 | 3:39.47 | 55060 | 71531
5 | 15:53.57 | 5:00.54 | 71532 | 94085
6 | 20:54.36 | 5:16.57 | 94086 | 117842
7 | 26:11.18 | 7:17.18 | 117843 | 150635
8 | 33:28.36 | 4:10.70 | 150636 | 169455
9 | 37:39.31 | 4:40.46 | 169456 | 190501
10 | 42:20.02 | 3:27.53 | 190502 | 206079
11 | 45:47.55 | 4:39.08 | 206080 | 227012
12 | 50:26.63 | 2:25.69 | 227013 | 237956
13 | 52:52.57 | 5:53.36 | 237957 | 264467
14 | 58:46.18 | 4:15.56 | 264468 | 283648
15 | 63:01.74 | 5:50.15 | 283649 | 309913


Track 1

Filename D:\burn\Anne Pigalle - Everything Could Be So Perfect… (Édition Deluxe) (2015) (flac)\Disc 2\01 - Anne Pigalle - Hé Stranger (Redirected By Trevor Horn).wav

Pre-gap length 0:00:02.00

Peak level 91.2 %
Extraction speed 3.1 X
Track quality 100.0 %
Test CRC E71F8C43
Copy CRC E71F8C43
Track not present in AccurateRip database
Copy OK

Track 2

Filename D:\burn\Anne Pigalle - Everything Could Be So Perfect… (Édition Deluxe) (2015) (flac)\Disc 2\02 - Anne Pigalle - Stranger (Than Fiction).wav

Pre-gap length 0:00:00.03

Peak level 75.8 %
Extraction speed 1.7 X
Track quality 100.0 %
Test CRC 7B30A120
Copy CRC 7B30A120
Track not present in AccurateRip database
Copy OK

Track 3

Filename D:\burn\Anne Pigalle - Everything Could Be So Perfect… (Édition Deluxe) (2015) (flac)\Disc 2\03 - Anne Pigalle - Hé Stranger (Plight Return).wav

Pre-gap length 0:00:00.19

Peak level 91.7 %
Extraction speed 1.4 X
Track quality 100.0 %
Test CRC 210027A2
Copy CRC 210027A2
Track not present in AccurateRip database
Copy OK

Track 4

Filename D:\burn\Anne Pigalle - Everything Could Be So Perfect… (Édition Deluxe) (2015) (flac)\Disc 2\04 - Anne Pigalle - Johnny.wav

Pre-gap length 0:00:02.16

Peak level 67.6 %
Extraction speed 1.5 X
Track quality 100.0 %
Test CRC 5BFABE4C
Copy CRC 5BFABE4C
Track not present in AccurateRip database
Copy OK

Track 5

Filename D:\burn\Anne Pigalle - Everything Could Be So Perfect… (Édition Deluxe) (2015) (flac)\Disc 2\05 - Anne Pigalle - Intermission (The Gods Are Bored) (Mix Aguicheur).wav

Pre-gap length 0:00:00.74

Peak level 97.7 %
Extraction speed 1.6 X
Track quality 100.0 %
Test CRC 3BBDCB2A
Copy CRC 3BBDCB2A
Track not present in AccurateRip database
Copy OK

Track 6

Filename D:\burn\Anne Pigalle - Everything Could Be So Perfect… (Édition Deluxe) (2015) (flac)\Disc 2\06 - Anne Pigalle - Intermission (The Gods Are Bored) (Mix Songeur).wav

Pre-gap length 0:00:01.06

Peak level 97.7 %
Extraction speed 1.8 X
Track quality 100.0 %
Test CRC 7197D230
Copy CRC 7197D230
Track not present in AccurateRip database
Copy OK

Track 7

Filename D:\burn\Anne Pigalle - Everything Could Be So Perfect… (Édition Deluxe) (2015) (flac)\Disc 2\07 - Anne Pigalle - Souvenir D'Un Paris (Mix Aguicheur).wav

Pre-gap length 0:00:00.74

Peak level 97.1 %
Extraction speed 1.8 X
Track quality 99.9 %
Test CRC D1E36AFA
Copy CRC D1E36AFA
Track not present in AccurateRip database
Copy OK

Track 8

Filename D:\burn\Anne Pigalle - Everything Could Be So Perfect… (Édition Deluxe) (2015) (flac)\Disc 2\08 - Anne Pigalle - Souvenir D'Un Paris (Mix Songeur).wav

Pre-gap length 0:00:01.00

Peak level 97.7 %
Extraction speed 2.0 X
Track quality 100.0 %
Test CRC 775FC2E7
Copy CRC 775FC2E7
Track not present in AccurateRip database
Copy OK

Track 9

Filename D:\burn\Anne Pigalle - Everything Could Be So Perfect… (Édition Deluxe) (2015) (flac)\Disc 2\09 - Anne Pigalle - Why Does It Have To Be This Way… (Piano Version).wav

Pre-gap length 0:00:02.13

Peak level 95.5 %
Extraction speed 2.1 X
Track quality 100.0 %
Test CRC 0C72AB9B
Copy CRC 0C72AB9B
Track not present in AccurateRip database
Copy OK

Track 10

Filename D:\burn\Anne Pigalle - Everything Could Be So Perfect… (Édition Deluxe) (2015) (flac)\Disc 2\10 - Anne Pigalle - Like We Do.wav

Pre-gap length 0:00:01.37

Peak level 85.1 %
Extraction speed 2.1 X
Track quality 100.0 %
Test CRC 340B9AD5
Copy CRC 340B9AD5
Track not present in AccurateRip database
Copy OK

Track 11

Filename D:\burn\Anne Pigalle - Everything Could Be So Perfect… (Édition Deluxe) (2015) (flac)\Disc 2\11 - Anne Pigalle - Looking For Love (Spring '84).wav

Pre-gap length 0:00:01.04

Peak level 97.7 %
Extraction speed 2.2 X
Track quality 100.0 %
Test CRC CE1A76AC
Copy CRC CE1A76AC
Track not present in AccurateRip database
Copy OK

Track 12

Filename D:\burn\Anne Pigalle - Everything Could Be So Perfect… (Édition Deluxe) (2015) (flac)\Disc 2\12 - Anne Pigalle - Intermission (The Gods Are Bored) (Spring '84).wav

Pre-gap length 0:00:00.71

Peak level 97.7 %
Extraction speed 2.1 X
Track quality 100.0 %
Test CRC 918A28B6
Copy CRC 918A28B6
Track not present in AccurateRip database
Copy OK

Track 13

Filename D:\burn\Anne Pigalle - Everything Could Be So Perfect… (Édition Deluxe) (2015) (flac)\Disc 2\13 - Anne Pigalle - A Crack In The Ocean (Spring '84).wav

Pre-gap length 0:00:02.18

Peak level 97.7 %
Extraction speed 2.4 X
Track quality 100.0 %
Test CRC 6D02675C
Copy CRC 6D02675C
Track not present in AccurateRip database
Copy OK

Track 14

Filename D:\burn\Anne Pigalle - Everything Could Be So Perfect… (Édition Deluxe) (2015) (flac)\Disc 2\14 - Anne Pigalle - The 1000 Colours Waltz (Spring '84).wav

Pre-gap length 0:00:01.37

Peak level 97.7 %
Extraction speed 2.4 X
Track quality 100.0 %
Test CRC 572B5C69
Copy CRC 572B5C69
Track not present in AccurateRip database
Copy OK

Track 15

Filename D:\burn\Anne Pigalle - Everything Could Be So Perfect… (Édition Deluxe) (2015) (flac)\Disc 2\15 - Anne Pigalle - Why Does It Have To Be This Way… (Winter '84).wav

Pre-gap length 0:00:02.14

Peak level 97.3 %
Extraction speed 2.5 X
Track quality 100.0 %
Test CRC 59210021
Copy CRC 59210021
Track not present in AccurateRip database
Copy OK


None of the tracks are present in the AccurateRip database

No errors occurred

End of status report

==== Log checksum AF69301F2F74A216554DD68F7B1168325894C0D9B4990CAA9307411AFDF6F6F1 ====