Tags
Language
Tags

Anthem - Burning Oath (2012) [Deluxe Ed., Japan SHM-CD] CD+DVD

Posted By: Andi_Deris
Anthem - Burning Oath (2012) [Deluxe Ed., Japan SHM-CD] CD+DVD

Anthem - Burning Oath (2012) [Deluxe Ed., Japan SHM-CD] CD+DVD
EAC Rip | FLAC: Image+Cue+Log | 371 Mb | MP3 CBR 320 kbps | 130 Mb | Scans | 82 Mb | 46:57
DVD5 | Video: NTSC 16:9 (720x480) | Audio: PCM 2 ch | 3.3 Gb | 01:36:08
Universal Music LLC | UICN-9006
Heavy Metal

ANTHEM released their new full length album entitled "Burning Oath", on October 24th, 2012 via Universal Music Japan. "Burning Oath" is full of great songs and to be honest… It's hard to choose my favorite song on the album, because every song worth hearing!!!

Anthem - Burning Oath (2012) [Deluxe Ed., Japan SHM-CD] CD+DVD




Anthem - Burning Oath (2012) [Deluxe Ed., Japan SHM-CD] CD+DVD


CD

01. Evil One (4:15)
02. Unbroken Sign (4:14)
03. Overture (0:56)
04. On And On (3:58)
05. Get Away (5:01)
06. Struggle Action (3:47)
07. Ghost In The Flame (7:55)
08. Double Helix (3:49)
09. Face The Core (3:35)
10. Life And Crime (4:41)
11. Dance Alone (4:46)

Produced by Naoto Shibata
Mixed by Roy Z

Anthem - Burning Oath (2012) [Deluxe Ed., Japan SHM-CD] CD+DVD


DVD

STORIES FROM BURNING OATH
> Evil One (Video) > Band Interview > Making The Recordings

Anthem - Burning Oath (2012) [Deluxe Ed., Japan SHM-CD] CD+DVD

Anthem - Burning Oath (2012) [Deluxe Ed., Japan SHM-CD] CD+DVD
Anthem - Burning Oath (2012) [Deluxe Ed., Japan SHM-CD] CD+DVD
Anthem - Burning Oath (2012) [Deluxe Ed., Japan SHM-CD] CD+DVD


Produced by Naoto Shibata & Takayuki Yamada

The Band

• Naoto Shibata: Bass
• Eizo Sakamoto: Vocals
• Akio Shimizu: Guitars
• Hirotsugu Homma: Drums

*****
• Isamu Tamaru: Drums (except: Ghost In The Flame)
• Yusuke Takahama: Keyboards

Anthem - Burning Oath (2012) [Deluxe Ed., Japan SHM-CD] CD+DVD


Exact Audio Copy V1.0 beta 3 from 29. August 2011

EAC extraction logfile from 30. October 2012, 9:31

ANTHEM / BURNING OATH

Used drive : HL-DT-STDVDRAM GT20N Adapter: 0 ID: 0

Read mode : Secure
Utilize accurate stream : Yes
Defeat audio cache : Yes
Make use of C2 pointers : No

Read offset correction : 667
Overread into Lead-In and Lead-Out : No
Fill up missing offset samples with silence : Yes
Delete leading and trailing silent blocks : No
Null samples used in CRC calculations : Yes
Used interface : Installed external ASPI interface

Used output format : User Defined Encoder
Selected bitrate : 32 kBit/s
Quality : High
Add ID3 tag : No
Command line compressor : C:\Progs\WavPack\wavpack.exe
Additional command line options : -h -d *.wav


TOC of the extracted CD

Track | Start | Length | Start sector | End sector
––––––––––––––––––––––––––––-
1 | 0:00.00 | 4:15.30 | 0 | 19154
2 | 4:15.30 | 4:14.65 | 19155 | 38269
3 | 8:30.20 | 0:56.12 | 38270 | 42481
4 | 9:26.32 | 3:58.53 | 42482 | 60384
5 | 13:25.10 | 5:01.65 | 60385 | 83024
6 | 18:27.00 | 3:47.45 | 83025 | 100094
7 | 22:14.45 | 7:55.20 | 100095 | 135739
8 | 30:09.65 | 3:49.45 | 135740 | 152959
9 | 33:59.35 | 3:35.65 | 152960 | 169149
10 | 37:35.25 | 4:41.40 | 169150 | 190264
11 | 42:16.65 | 4:46.40 | 190265 | 211754


Range status and errors

Selected range

Filename E:\ANTHEM - BURNING OATH\ANTHEM - BURNING OATH.wav

Peak level 100.0 %
Extraction speed 4.0 X
Range quality 100.0 %
Test CRC 2B34DBB0
Copy CRC 2B34DBB0
Copy OK

No errors occurred


AccurateRip summary

Track 1 not present in database
Track 2 not present in database
Track 3 not present in database
Track 4 not present in database
Track 5 not present in database
Track 6 not present in database
Track 7 not present in database
Track 8 not present in database
Track 9 not present in database
Track 10 not present in database
Track 11 not present in database

None of the tracks are present in the AccurateRip database

End of status report

Enabled regions: 1, 2, 3, 4, 5, 6, 7, 8

VTS_01 :
Play Length: 00:50:21+00:45:47+{00:04:28}
Video: NTSC 16:9 (720x480) VBR, Auto Letterboxed
Audio:
Japanese, LPCM, Delay = 0 mSec

Subtitles:
Japanese

* Menus Information *

VIDEO_TS Menu
Video:
NTSC 16:9 (720x480) VBR
Auto Letterboxed
Audio:
Not specified (LinearPCM, 2 ch)
Japanese Language Unit :
Title Menu

VTS_01 Menu
Video:
NTSC 16:9 (720x480) VBR
Auto Letterboxed
Japanese Language Unit :
Root Menu


Many thanks to the original uploader: SHI





Password: pass