Tags
Language
Tags

Antonio Florio, Cappella de’ Turchini - Gaetano Latilla: La Finta cameriera (2000)

Posted By:
Antonio Florio, Cappella de’ Turchini - Gaetano Latilla: La Finta cameriera (2000)

Antonio Florio, Cappella de’ Turchini - Gaetano Latilla: La Finta cameriera (2000)
EAC | FLAC | Image (Cue & Log) ~ 714 Mb | Total time: 141:33 | Scans included
Classical | Label: Opus 111 | OPS30-275/276 | Recorded: 2000

Gaetano Latilla (1711-88) is pretty much a footnote, but after its premiere in 1738, this opera, La finta cameriera, was performed at one time or another throughout Europe for the next 20 years. It consists of 44 arias and acres of recitative (indeed, the Parisians objected to all the chatter in 1752). I normally hate these 18th century “intermezzo” operas about people disguised as either the lower classes or their own brothers, particularly because in between the acres of recitative there usually are simple-to-sing, “flavorful” arias. This work, however, is different: many of the arias are very showy and difficult, and require true virtuoso singing.
Conductor Antonio Florio leads his La Cappella de’ Turchini with fabulous energy, and both instrumentalists and singers embellish their music tastefully and entertainingly. The sharp “quack” of the oboe and the “splat” of the horns add great spice and the strings attack ferociously. The singers occasionally ham it up a bit, in particular baritone Giuseppe Naviglio in the comic role of a young roué, but all of them navigate around their difficult music well and perform the opera as if it were a masterpiece. Particularly good in the cast are Roberta Invernizzi and Maria Ercolano, although the basses, with their fine patter arias, and character tenors Stefano Di Fraia and Giuseppe di Vittorio (as a female gardener) are delightful too. This rarity is worth hearing–you won’t find much depth, but it’s amazing how much very good music there still is out there, waiting to be re-discovered.
–Robert Levine

Performer:
Giocondo / Alessandra - Roberta Invernizzi
Bettina - Cinzia Rizzone
Erosmina - Maria Ercolano
Dorina - Giuseppe De Vittorio
Filindo - Francesca Russo Ermolli
Moschino - Stefano Di Fraia
Don Calascione - Giuseppe Naviglio
Pancrazio - Pierre Thirion Vallet
La Cappella de'Turchini
Conductor - Antonio Florio

Track List:
CD1:
01. Sinfonia
02. Atto I. Recitativo: Io ti dico di si - Dammela a mene già la cammeriera non viè
03. Aria: Io ho un vespaio
04. Recitativo: Alessandra, qui sei?
05. Aria: Svela, se m'ami, oh cara
06. Recitativo: Sembra ch'io tocchi il porto
07. Aria: Agitato il mio cor si confonde
08. Recitativo: Quest'è la casa del signor Pancrazio? - Bella, la sposa è lei?
09. Aria: Ti squadro, ti vedo
10. Recitativo: Vossignoria illustrissima - Amore ti ringrazio
11. Aria: Sposa, non vieni?
12. Recitativo: Questo sciocco in sciocchezza
13. Aria: Speme gradita all'alma
14. Recitativo: Mi spiace il gran disaggio ch'ebbe per me - Filindo
15. Aria: A me schifenzia?
16. Atto II. Aria: Non è folle, s'ei si lagna
17. Recitativo: O come suole ben costare affanni
18. Aria: Fra mille pensieri confuso il mio core
19. Recitativo: Abbia ella pazienza - Via su, si metta la veste.
20. Aria: Dentro a quegli occhi belli
21. Recitativo: Sangue del detto, me fai così, me fai.
22. Aria: Più non mi cucchi
23. Recitativo: Guardate
24. Aria: E scema, è pazza e misera
CD2:
01. Recitativo: Ben, come sta la signorina nostra? - Alessandra, io ritorno
02. Aria: Colà sul praticello vicino al fonticello
03. Recitativo: E' un bel tresca l'è cotesta? - Che bella tresca l'è cotesta?
04. Aria: Signor Pancrazio mio, la prego si contenti
05. Recitativo: Catterà! Non si burla con costui.
06. Aria: Quando senti la campana
07. Atto III. Recitativo: Alessandra, sai tu quel che risolve delle mie nazze il padre?
08. Aria: O questo o quello
09. Recitativo: Erosmina e Giocondo - Hai tu udito, Alessandra?
10. Aria: Se pur d'un infelice
11. Recitativo: Per quel, che a me poc'anzi disse Pancrazio - Oh addio
12. Aria: Chi non cura il mar placato
13. Recitativo: E per tuo scorno
14. Aria: La fravoletta
15. Recitativo: Sai tu, che il matrimonio della nostra padrona è andato in fumo?
16. Aria: Da zitella, da zitella non te credo
17. Recitativo: Và pur, và, gaglioffone - No, no, venite qua, venite qua.
18. Aria: Ad ogni punto io credo
19. Recitativo: Alessandra io non veggo - Con un uomo mia figlia?
20. Aria: Cominci Erosmina a svellermi il core
21. Tutti: Numi, io manco, io moro!


Exact Audio Copy V1.0 beta 3 from 29. August 2011

EAC extraction logfile from 2. July 2013, 15:32

La Cappella de' Turchini, Antonio Florio / Latilla - La Finta cameriera - CD1

Used drive : HL-DT-STDVDRRW GWA-4164B Adapter: 5 ID: 0

Read mode : Secure
Utilize accurate stream : Yes
Defeat audio cache : Yes
Make use of C2 pointers : No

Read offset correction : 102
Overread into Lead-In and Lead-Out : No
Fill up missing offset samples with silence : Yes
Delete leading and trailing silent blocks : No
Null samples used in CRC calculations : Yes
Used interface : Native Win32 interface for Win NT & 2000

Used output format : User Defined Encoder
Selected bitrate : 896 kBit/s
Quality : High
Add ID3 tag : No
Command line compressor : C:\Program Files\Exact Audio Copy\FLAC\FLAC.EXE
Additional command line options : -V -8 %source%


TOC of the extracted CD

Track | Start | Length | Start sector | End sector
––––––––––––––––––––––––––––-
1 | 0:00.00 | 3:31.17 | 0 | 15841
2 | 3:31.17 | 3:49.63 | 15842 | 33079
3 | 7:21.05 | 3:49.05 | 33080 | 50259
4 | 11:10.10 | 2:03.40 | 50260 | 59524
5 | 13:13.50 | 6:00.15 | 59525 | 86539
6 | 19:13.65 | 0:18.22 | 86540 | 87911
7 | 19:32.12 | 7:25.15 | 87912 | 121301
8 | 26:57.27 | 2:06.45 | 121302 | 130796
9 | 29:03.72 | 4:10.38 | 130797 | 149584
10 | 33:14.35 | 1:52.35 | 149585 | 158019
11 | 35:06.70 | 3:14.55 | 158020 | 172624
12 | 38:21.50 | 0:18.70 | 172625 | 174044
13 | 38:40.45 | 6:25.60 | 174045 | 202979
14 | 45:06.30 | 3:59.22 | 202980 | 220926
15 | 49:05.52 | 1:44.00 | 220927 | 228726
16 | 50:49.52 | 6:24.23 | 228727 | 257549
17 | 57:14.00 | 0:23.70 | 257550 | 259344
18 | 57:37.70 | 5:01.15 | 259345 | 281934
19 | 62:39.10 | 2:00.30 | 281935 | 290964
20 | 64:39.40 | 1:11.70 | 290965 | 296359
21 | 65:51.35 | 0:43.25 | 296360 | 299609
22 | 66:34.60 | 3:01.27 | 299610 | 313211
23 | 69:36.12 | 0:28.03 | 313212 | 315314
24 | 70:04.15 | 6:41.60 | 315315 | 345449


Range status and errors

Selected range

Filename D:\temp\Music\Latilla - La Finta cameriera\Latilla - La Finta cameriera - CD1.wav

Peak level 100.0 %
Extraction speed 4.0 X
Range quality 100.0 %
Test CRC 950D1FB4
Copy CRC 950D1FB4
Copy OK

No errors occurred


AccurateRip summary

Track 1 accurately ripped (confidence 3) [EFF25CEE] (AR v1)
Track 2 accurately ripped (confidence 3) [0A70DA86] (AR v1)
Track 3 accurately ripped (confidence 3) [D7669816] (AR v1)
Track 4 accurately ripped (confidence 3) [6B136DE3] (AR v1)
Track 5 accurately ripped (confidence 3) [91EB3C9E] (AR v1)
Track 6 accurately ripped (confidence 3) [D5453066] (AR v1)
Track 7 accurately ripped (confidence 3) [923965D9] (AR v1)
Track 8 accurately ripped (confidence 3) [A66C6023] (AR v1)
Track 9 accurately ripped (confidence 3) [C1479C65] (AR v1)
Track 10 accurately ripped (confidence 3) [106736C0] (AR v1)
Track 11 accurately ripped (confidence 3) [38212884] (AR v1)
Track 12 accurately ripped (confidence 3) [E5D3DB7B] (AR v1)
Track 13 accurately ripped (confidence 3) [AE87F25B] (AR v1)
Track 14 accurately ripped (confidence 3) [3FD86352] (AR v1)
Track 15 accurately ripped (confidence 3) [20C98F52] (AR v1)
Track 16 accurately ripped (confidence 3) [D13A096D] (AR v1)
Track 17 accurately ripped (confidence 3) [8093E449] (AR v1)
Track 18 accurately ripped (confidence 3) [955304FA] (AR v1)
Track 19 accurately ripped (confidence 3) [6CD297AF] (AR v1)
Track 20 accurately ripped (confidence 3) [38E03D74] (AR v1)
Track 21 accurately ripped (confidence 3) [12F6366F] (AR v1)
Track 22 accurately ripped (confidence 3) [A0EE1DB9] (AR v1)
Track 23 accurately ripped (confidence 3) [E1DD89BB] (AR v1)
Track 24 accurately ripped (confidence 3) [4126DD2F] (AR v1)

All tracks accurately ripped

End of status report

==== Log checksum 44AEB99C649352DE78141BAF08D82C0B051DE7A707E451F83D9917B32C07664D ====


Exact Audio Copy V1.0 beta 3 from 29. August 2011

EAC extraction logfile from 2. July 2013, 17:56

La Cappella de' Turchini, Antonio Florio / Latilla - La Finta cameriera - CD2

Used drive : HL-DT-STDVDRRW GWA-4164B Adapter: 5 ID: 0

Read mode : Secure
Utilize accurate stream : Yes
Defeat audio cache : Yes
Make use of C2 pointers : No

Read offset correction : 102
Overread into Lead-In and Lead-Out : No
Fill up missing offset samples with silence : Yes
Delete leading and trailing silent blocks : No
Null samples used in CRC calculations : Yes
Used interface : Native Win32 interface for Win NT & 2000

Used output format : User Defined Encoder
Selected bitrate : 896 kBit/s
Quality : High
Add ID3 tag : No
Command line compressor : C:\Program Files\Exact Audio Copy\FLAC\FLAC.EXE
Additional command line options : -V -8 %source%


TOC of the extracted CD

Track | Start | Length | Start sector | End sector
––––––––––––––––––––––––––––-
1 | 0:00.00 | 5:29.20 | 0 | 24694
2 | 5:29.20 | 3:32.12 | 24695 | 40606
3 | 9:01.32 | 1:45.40 | 40607 | 48521
4 | 10:46.72 | 5:03.53 | 48522 | 71299
5 | 15:50.50 | 1:17.04 | 71300 | 77078
6 | 17:07.54 | 2:27.31 | 77079 | 88134
7 | 19:35.10 | 1:07.02 | 88135 | 93161
8 | 20:42.12 | 2:52.70 | 93162 | 106131
9 | 23:35.07 | 1:41.38 | 106132 | 113744
10 | 25:16.45 | 4:30.32 | 113745 | 134026
11 | 29:47.02 | 1:14.10 | 134027 | 139586
12 | 31:01.12 | 5:25.50 | 139587 | 164011
13 | 36:26.62 | 0:37.25 | 164012 | 166811
14 | 37:04.12 | 4:00.25 | 166812 | 184836
15 | 41:04.37 | 0:44.35 | 184837 | 188171
16 | 41:48.72 | 3:18.05 | 188172 | 203026
17 | 45:07.02 | 3:55.13 | 203027 | 220664
18 | 49:02.15 | 3:04.52 | 220665 | 234516
19 | 52:06.67 | 2:08.33 | 234517 | 244149
20 | 54:15.25 | 7:37.12 | 244150 | 278436
21 | 61:52.37 | 2:52.43 | 278437 | 291379


Range status and errors

Selected range

Filename D:\temp\Music\Latilla - La Finta cameriera\Latilla - La Finta cameriera - CD2.wav

Peak level 99.3 %
Extraction speed 2.1 X
Range quality 99.9 %
Test CRC 107398A9
Copy CRC 107398A9
Copy OK

No errors occurred


AccurateRip summary

Track 1 accurately ripped (confidence 2) [8A980858] (AR v1)
Track 2 accurately ripped (confidence 2) [890118EE] (AR v1)
Track 3 accurately ripped (confidence 2) [8A64505C] (AR v1)
Track 4 accurately ripped (confidence 2) [F769CE94] (AR v1)
Track 5 accurately ripped (confidence 2) [300ED2ED] (AR v1)
Track 6 accurately ripped (confidence 2) [C9C769EA] (AR v1)
Track 7 accurately ripped (confidence 2) [4E999AD6] (AR v1)
Track 8 accurately ripped (confidence 2) [F93CECE2] (AR v1)
Track 9 accurately ripped (confidence 2) [D967DAE0] (AR v1)
Track 10 accurately ripped (confidence 2) [EAED25FE] (AR v1)
Track 11 accurately ripped (confidence 2) [5D8659F1] (AR v1)
Track 12 accurately ripped (confidence 2) [1A93CA74] (AR v1)
Track 13 accurately ripped (confidence 2) [9460F351] (AR v1)
Track 14 accurately ripped (confidence 2) [5D40F773] (AR v1)
Track 15 accurately ripped (confidence 2) [A92ED68A] (AR v1)
Track 16 accurately ripped (confidence 2) [54E4EFB9] (AR v1)
Track 17 accurately ripped (confidence 2) [F196B3A4] (AR v1)
Track 18 accurately ripped (confidence 2) [E036166F] (AR v1)
Track 19 accurately ripped (confidence 2) [5C129C4B] (AR v1)
Track 20 accurately ripped (confidence 2) [09894A79] (AR v1)
Track 21 accurately ripped (confidence 2) [90283671] (AR v1)

All tracks accurately ripped

End of status report

==== Log checksum 7FEA69ADCECFAD741BD8B4C0E9E669DDA1CACA56DBE67EC1FB5866E1165867BE ====

Antonio Florio, Cappella de’ Turchini - Gaetano Latilla: La Finta cameriera (2000)

Thanks to the original releaser