Subcategories
Tags
Language
Tags

Arena - 2 EPs (2003)

Posted By: gribovar
Arena - 2 EPs (2003)

Arena - 2 EPs (2003)
EAC Rip | FLAC (image+.cue+log) - 331 MB | MP3 CBR 320 kbps (LAME 3.93) - 105 MB | Covers - 131 MB
Genre: Neo-Progressive Rock | RAR 3% Rec. | Label: Verglas Music

Contagious [EP] (2003). One of the most interesting items from the “Contagion” tour merchandising is this EP, entitled “Contagious”, a reasonably necessary complement to the LP. This CD includes four brand new songs, and a remix of “Witch Hunt”. In short, a brief but interesting release, a must for any Arena and Nolan collector. And don't forget another great artwork job by David Wyatt.
Contagium [EP] (2003). “Contagium” is the second and last EP to follow British progressive rock band Arena’s early 2003 studio album “Contagion”. Just like “Contagious”, the second EP that was released mid 2003, this mini album contains tracks that complete the conceptual story and musical journey of the full album, supplemented by a special remix.

Arena - 2 EPs (2003)

Arena - Contagious [EP] (2003)
EAC Rip | FLAC (image+.cue+log) - 161 MB | MP3 CBR 320 kbps (LAME 3.93) - 50 MB | Covers - 69 MB
Genre: Neo-Progressive Rock | RAR 3% Rec. | Label: Verglas Music (VGCD023)

Tracklist:
01. Vanishing Act
02. I Spy
03. Contagious
04. The Hour Glass
05. Witch Hunt (Special Remix)

Total time: 21:14

Exact Audio Copy V1.0 beta 2 from 29. April 2011

EAC extraction logfile from 1. July 2011, 18:53

Arena / Contagious

Used drive : SONY DVD RW AD-7260S Adapter: 0 ID: 1

Read mode : Secure
Utilize accurate stream : Yes
Defeat audio cache : Yes
Make use of C2 pointers : No

Read offset correction : 48
Overread into Lead-In and Lead-Out : No
Fill up missing offset samples with silence : Yes
Delete leading and trailing silent blocks : No
Null samples used in CRC calculations : Yes
Used interface : Native Win32 interface for Win NT & 2000

Used output format : Internal WAV Routines
Sample format : 44.100 Hz; 16 Bit; Stereo


TOC of the extracted CD

Track | Start | Length | Start sector | End sector
––––––––––––––––––––––––––––-
1 | 0:00.00 | 4:14.13 | 0 | 19062
2 | 4:14.13 | 6:08.11 | 19063 | 46673
3 | 10:22.24 | 4:23.42 | 46674 | 66440
4 | 14:45.66 | 2:45.20 | 66441 | 78835
5 | 17:31.11 | 3:42.49 | 78836 | 95534
6 | 23:45.60 | 47:01.69 | 106935 | 318578


Range status and errors

Selected range

Filename D:\Downlod Torrents\Arena - 2003 - Contagious\Arena - Contagious.wav

Peak level 98.5 %
Extraction speed 3.1 X
Range quality 100.0 %
Test CRC 6687F86D
Copy CRC 6687F86D
Copy OK

No errors occurred


AccurateRip summary

Track 1 accurately ripped (confidence 15) [00124030] (AR v1)
Track 2 accurately ripped (confidence 15) [364E84D2] (AR v1)
Track 3 accurately ripped (confidence 15) [5EE2F1D5] (AR v1)
Track 4 accurately ripped (confidence 15) [9A8C889D] (AR v1)
Track 5 accurately ripped (confidence 14) [5AB6E265] (AR v1)

All tracks accurately ripped

End of status report

[CUETools log; Date: 08.05.2021 13:07:50; Version: 2.1.4]
CD-Extra data track length 47:01:69.
[CTDB TOCID: nSde054CvngTqxzhBUZCh6nnsNk-] found.
Track | CTDB Status
1 | (58/58) Accurately ripped
2 | (58/58) Accurately ripped
3 | (58/58) Accurately ripped
4 | (58/58) Accurately ripped
5 | (58/58) Accurately ripped
[AccurateRip ID: 000814b9-0029f47f-49109706] found.
Track [ CRC | V2 ] Status
01 [00124030|b6120853] (16+29/45) Accurately ripped
02 [364e84d2|e9da01f9] (16+29/45) Accurately ripped
03 [5ee2f1d5|8ccc9d51] (16+29/45) Accurately ripped
04 [9a8c889d|ac90932c] (16+29/45) Accurately ripped
05 [5ab6e265|c8adb534] (15+29/44) Accurately ripped
Offsetted by -664:
01 [70abec48] (00/45) No match (V2 was not tested)
02 [58155df2] (00/45) No match (V2 was not tested)
03 [460c461d] (00/45) No match (V2 was not tested)
04 [5feffa3d] (00/45) No match (V2 was not tested)
05 [3337437d] (00/44) No match (V2 was not tested)

Track Peak [ CRC32 ] [W/O NULL] [ LOG ]
– 98,5 [6687F86D] [1C051B30] CRC32
01 96,7 [F4E53FAE] [74E80F63]
02 97,5 [353E5098] [B369E858]
03 97,3 [D0059A98] [2C5D99EB]
04 95,9 [CD26737C] [0D484E35]
05 98,5 [B9463784] [2F2C1976]

Arena - 2 EPs (2003)

Arena - Contagium [EP] (2003)
EAC Rip | FLAC (image+.cue+log) - 170 MB | MP3 CBR 320 kbps (LAME 3.93) - 55 MB | Covers - 62 MB
Genre: Neo-Progressive Rock | RAR 3% Rec. | Label: Verglas Music (VGCD025)

Tracklist:
01. On The Edge Of Despair
02. The March Of Time
03. Confrontation
04. Salamander (Special Remix)

Total time: 23:33

Exact Audio Copy V1.0 beta 2 from 29. April 2011

EAC extraction logfile from 1. July 2011, 19:09

Arena / Contagium

Used drive : SONY DVD RW AD-7260S Adapter: 0 ID: 1

Read mode : Secure
Utilize accurate stream : Yes
Defeat audio cache : Yes
Make use of C2 pointers : No

Read offset correction : 48
Overread into Lead-In and Lead-Out : No
Fill up missing offset samples with silence : Yes
Delete leading and trailing silent blocks : No
Null samples used in CRC calculations : Yes
Used interface : Native Win32 interface for Win NT & 2000

Used output format : Internal WAV Routines
Sample format : 44.100 Hz; 16 Bit; Stereo


TOC of the extracted CD

Track | Start | Length | Start sector | End sector
––––––––––––––––––––––––––––-
1 | 0:00.00 | 5:43.51 | 0 | 25775
2 | 5:43.51 | 7:30.50 | 25776 | 59575
3 | 13:14.26 | 5:33.66 | 59576 | 84616
4 | 18:48.17 | 4:45.12 | 84617 | 106003
5 | 26:05.29 | 27:35.36 | 117404 | 241564


Range status and errors

Selected range

Filename D:\Downlod Torrents\Arena - 2003 - Contagium\Arena - Contagium.wav

Peak level 97.5 %
Extraction speed 3.2 X
Range quality 100.0 %
Test CRC 04A3576C
Copy CRC 04A3576C
Copy OK

No errors occurred


AccurateRip summary

Track 1 accurately ripped (confidence 10) [58C11969] (AR v1)
Track 2 accurately ripped (confidence 10) [F23A8BEB] (AR v1)
Track 3 accurately ripped (confidence 10) [F8E1C814] (AR v1)
Track 4 accurately ripped (confidence 10) [03EBFF29] (AR v1)

All tracks accurately ripped

End of status report

[CUETools log; Date: 08.05.2021 13:08:11; Version: 2.1.4]
CD-Extra data track length 27:35:36.
[CTDB TOCID: yvY96O5p6zxYwaD3UTRyNKMrqiE-] found.
Track | CTDB Status
1 | (39/40) Accurately ripped
2 | (40/40) Accurately ripped
3 | (40/40) Accurately ripped
4 | (40/40) Accurately ripped
[AccurateRip ID: 0006478e-001b1bbe-3c0c9405] found.
Track [ CRC | V2 ] Status
01 [58c11969|0efd63fa] (11+13/27) Accurately ripped
02 [f23a8beb|7792090b] (11+13/27) Accurately ripped
03 [f8e1c814|70b8bca4] (11+13/27) Accurately ripped
04 [03ebff29|8aeeb142] (11+13/27) Accurately ripped
Offsetted by -18:
01 [067a5ca1] (03/27) Accurately ripped
02 [1d228b11] (03/27) Accurately ripped
03 [5153240c] (03/27) Accurately ripped
04 [47d09749] (03/27) Accurately ripped

Track Peak [ CRC32 ] [W/O NULL] [ LOG ]
– 97,5 [04A3576C] [6F3FBDA9] CRC32
01 97,1 [49F3153A] [E7DB228D]
02 97,5 [78535147] [269FEBCC]
03 97,1 [FE2EDD3D] [DF0E56D5]
04 96,3 [D9C099D8] [F2B69F1D]

Thanks to Vladimir Merzlov

See also:
Arena - 6 Studio Albums (1995-2018)
Arena - Unlocking the Cage 1995-2000 (2001)
Arena - Live & Life (2004)