Tags
Language
Tags

Aretha Franklin - Aretha Live at Fillmore West (1971) [Japanese Remastered 2013]

Posted By: JET 1
Aretha Franklin - Aretha Live at Fillmore West (1971) [Japanese Remastered 2013]

Aretha Franklin - Aretha Live at Fillmore West (1971) [Japanese Remastered 2013]
EAC Rip | FLAC (Tracks) +CUE, LOG | 440 MB | Scans
Genre: Rhythm & Blues, Soul, Funk | Label: Warner Music Japan | Catalog Number: 8122-79630-3

Limited pressing housed in Japanese mini LP sleeve packaging with obi strip. Digitally remastered edition of this classic '60s Soul release. For years, Motown was always referred to as the most influential Soul label of the '60s. However, one cursory glance at Atlantic's vast catalog of '60s Soul releases proves that Atlantic may have had the edge in regards to it's roster of influential talent. This remaster is just one in a series of Japanese Atlantic Soul and R&B reissues that comes housed in a min LP sleeve, which replicates the excitement of opening the album back when it first came out Note!:The album has been printed and manufactured in japan, the only difference is the booklet which is in Japanese.

Exact Audio Copy V1.5 from 20. February 2020

EAC extraction logfile from 25. July 2021, 17:36

Aretha Franklin / Aretha Live At Fillmore West

Used drive : HL-DT-STDVD-ROM GDR8161B Adapter: 1 ID: 0

Read mode : Secure
Utilize accurate stream : Yes
Defeat audio cache : Yes
Make use of C2 pointers : No

Read offset correction : 102
Overread into Lead-In and Lead-Out : No
Fill up missing offset samples with silence : Yes
Delete leading and trailing silent blocks : No
Null samples used in CRC calculations : Yes
Used interface : Native Win32 interface for Win NT & 2000
Gap handling : Appended to previous track

Used output format : User Defined Encoder
Selected bitrate : 768 kBit/s
Quality : High
Add ID3 tag : No
Command line compressor : C:\Program Files (x86)\Exact Audio Copy\Flac\flac.exe
Additional command line options : -8 -V -T "ARTIST=%artist%" -T "TITLE=%title%" -T "ALBUM=%albumtitle%" -T "DATE=%year%" -T "TRACKNUMBER=%tracknr%" -T "TOTALTRACKS=%numtracks%" -T "GENRE=%genre%" -T "ALBUMARTIST=%albumartist%" -T "ALBUM ARTIST=%albumartist%" -T "COMMENT=EAC Secure Mode, Test & Copy, AccurateRip, FLAC -8" %source%


TOC of the extracted CD

Track | Start | Length | Start sector | End sector
––––––––––––––––––––––––––––-
1 | 0:00.00 | 3:56.27 | 0 | 17726
2 | 3:56.27 | 4:21.34 | 17727 | 37335
3 | 8:17.61 | 5:49.36 | 37336 | 63546
4 | 14:07.22 | 2:33.41 | 63547 | 75062
5 | 16:40.63 | 4:32.07 | 75063 | 95469
6 | 21:12.70 | 3:16.67 | 95470 | 110236
7 | 24:29.62 | 7:03.37 | 110237 | 141998
8 | 31:33.24 | 5:20.64 | 141999 | 166062
9 | 36:54.13 | 8:39.09 | 166063 | 204996
10 | 45:33.22 | 2:38.38 | 204997 | 216884


Track 1

Filename D:\TORRENT\Aretha Franklin - Aretha Live At Fillmore West\01 - Respect.wav

Pre-gap length 0:00:02.00

Peak level 100.0 %
Extraction speed 4.1 X
Track quality 99.9 %
Test CRC 14F2E411
Copy CRC 14F2E411
Accurately ripped (confidence 7) [C33311E8] (AR v2)
Copy OK

Track 2

Filename D:\TORRENT\Aretha Franklin - Aretha Live At Fillmore West\02 - Love The One You're With.wav

Peak level 100.0 %
Extraction speed 5.4 X
Track quality 100.0 %
Test CRC B06FD37C
Copy CRC B06FD37C
Accurately ripped (confidence 7) [3FA026E9] (AR v2)
Copy OK

Track 3

Filename D:\TORRENT\Aretha Franklin - Aretha Live At Fillmore West\03 - Bridge Over Troubled Water.wav

Peak level 100.0 %
Extraction speed 6.2 X
Track quality 100.0 %
Test CRC 44FDB3A8
Copy CRC 44FDB3A8
Accurately ripped (confidence 7) [FDC66A61] (AR v2)
Copy OK

Track 4

Filename D:\TORRENT\Aretha Franklin - Aretha Live At Fillmore West\04 - Eleanor Rigby.wav

Peak level 100.0 %
Extraction speed 5.8 X
Track quality 100.0 %
Test CRC B5E9239A
Copy CRC B5E9239A
Accurately ripped (confidence 7) [B6BEFFAE] (AR v2)
Copy OK

Track 5

Filename D:\TORRENT\Aretha Franklin - Aretha Live At Fillmore West\05 - Make It With You.wav

Peak level 100.0 %
Extraction speed 6.8 X
Track quality 100.0 %
Test CRC 16A0122D
Copy CRC 16A0122D
Accurately ripped (confidence 7) [BA7463E6] (AR v2)
Copy OK

Track 6

Filename D:\TORRENT\Aretha Franklin - Aretha Live At Fillmore West\06 - Don't Play That Song.wav

Peak level 100.0 %
Extraction speed 5.7 X
Track quality 99.9 %
Test CRC 0B3B5698
Copy CRC 0B3B5698
Accurately ripped (confidence 7) [10F956FF] (AR v2)
Copy OK

Track 7

Filename D:\TORRENT\Aretha Franklin - Aretha Live At Fillmore West\07 - Dr. Feelgood.wav

Pre-gap length 0:00:00.22

Peak level 100.0 %
Extraction speed 7.9 X
Track quality 100.0 %
Test CRC D2F7B182
Copy CRC D2F7B182
Accurately ripped (confidence 7) [01EA144A] (AR v2)
Copy OK

Track 8

Filename D:\TORRENT\Aretha Franklin - Aretha Live At Fillmore West\08 - Spirit In The Dark.wav

Peak level 100.0 %
Extraction speed 8.0 X
Track quality 100.0 %
Test CRC 2C9C2987
Copy CRC 2C9C2987
Accurately ripped (confidence 7) [0066C46E] (AR v2)
Copy OK

Track 9

Filename D:\TORRENT\Aretha Franklin - Aretha Live At Fillmore West\09 - Spirit In The Dark (Reprise With Ray Charles).wav

Peak level 100.0 %
Extraction speed 8.9 X
Track quality 100.0 %
Test CRC E377292D
Copy CRC E377292D
Accurately ripped (confidence 7) [A4A589AA] (AR v2)
Copy OK

Track 10

Filename D:\TORRENT\Aretha Franklin - Aretha Live At Fillmore West\10 - Reach Out And Touch (Somebody's Hand).wav

Peak level 100.0 %
Extraction speed 8.0 X
Track quality 100.0 %
Test CRC B6663061
Copy CRC B6663061
Accurately ripped (confidence 7) [F9913573] (AR v2)
Copy OK


All tracks accurately ripped

No errors occurred

End of status report

–– CUETools DB Plugin V2.1.6

[CTDB TOCID: RvXw_aDkmsMwbabVuD1996yqlQI-] found
Submit result: RvXw_aDkmsMwbabVuD1996yqlQI- has been confirmed
Track | CTDB Status
1 | ( 99/101) Accurately ripped
2 | (101/101) Accurately ripped
3 | (101/101) Accurately ripped
4 | (101/101) Accurately ripped
5 | (101/101) Accurately ripped
6 | (101/101) Accurately ripped
7 | (101/101) Accurately ripped
8 | (101/101) Accurately ripped
9 | (101/101) Accurately ripped
10 | (101/101) Accurately ripped


==== Log checksum 96D4C01A42AD4EC38F2B92684140C084DBB59A55DA8C9C97368B2C74BF507495 ====

Tracklist ::::
01. Respect (03:56)
02. Love The One You're With (04:21)
03. Bridge Over Troubled Water (05:49)
04. Eleanor Rigby (02:33)
05. Make It With You (04:32)
06. Don't Play That Song (03:17)
07. Dr. Feelgood (07:02)
08. Spirit In The Dark (05:20)
09. Spirit In The Dark (Reprise With Ray Charles) (08:38)
10. Reach Out And Touch (Somebody's Hand) (02:39)