Tags
Language
Tags

Aretha Franklin - Aretha's Jazz (1984)

Posted By: BlondStyle
Aretha Franklin - Aretha's Jazz (1984)

Aretha Franklin - Aretha's Jazz (1984)
R&B, Jazz, Soul, Vocal Pop | EAC Rip | FLAC, Img+CUE+LOG+Scans (JPEG) | 34:48 Min | 206,42 Mb
Label: Atlantic Jazz (USA) | Cat.# 7 81230-2 | Released: 1984-07-01
Aretha Franklin - Aretha's Jazz (1984)

A good anthology that covers various album cuts, B-sides, and assorted material in a jazz vein that Aretha cut for Columbia. It's great to hear her underrated piano playing given some more space, and Columbia should really reissue her Dinah Washington tribute album, from which they pulled a couple of these songs. Aretha wasn't a jazz vocalist from the standpoint of approach or inspiration, but she really can sing anything and showed it on these cuts, even if they weren't, for the most part, hits.
~Review by Ron Wynn

Aretha Franklin - Aretha's Jazz (1984)

Aretha Franklin - Aretha's Jazz (1984)


Release of the album: 1984 [LP Atlantic Records, Cat.# 81230-1, USA]
Release of this CD: 1984, July, 1 [CD Atlantic Jazz (USA), Cat.# 7 81230-2 / UPC: 075678123023]
©1973 Atlantic Recording Corporation. ℗1984 Atlantic Recording Corporation.
Made in U.S.A. by WEA Manufacturing

Tracklist:

01. Ramblin' (03:09)
(Smith)
02. Today I Sing the Blues (04:25)
(Hamner, Lewis)
03. Pitiful (03:04)
(McCoy, Singleton)
04. Crazy He Calls Me (03:26)
(Russell, Sigman)
05. Bring It on Home to Me (03:44)
(Cooke)
06. Somewhere (06:17)
(Bernstein, Sondheim)
07. Moody's Mood (03:00)
(Fields, McHugh, Moody)
08. Just Right Tonight (07:43)
(Jones, Franklin)

Exact Audio Copy V0.99 prebeta 4 from 23. January 2008

EAC extraction logfile from 28. July 2010, 12:15

Aretha Franklin / Aretha's Jazz

Used drive : ATAPI DVD DW 8X16X8X16 Adapter: 0 ID: 2

Read mode : Secure
Utilize accurate stream : Yes
Defeat audio cache : Yes
Make use of C2 pointers : No

Read offset correction : 618
Overread into Lead-In and Lead-Out : No
Fill up missing offset samples with silence : Yes
Delete leading and trailing silent blocks : No
Null samples used in CRC calculations : Yes
Used interface : Native Win32 interface for Win NT & 2000

Used output format : Internal WAV Routines
Sample format : 44.100 Hz; 16 Bit; Stereo


TOC of the extracted CD

Track | Start | Length | Start sector | End sector
––––––––––––––––––––––––––––-
1 | 0:00.32 | 3:09.05 | 32 | 14211
2 | 3:09.37 | 4:25.03 | 14212 | 34089
3 | 7:34.40 | 3:04.15 | 34090 | 47904
4 | 10:38.55 | 3:25.67 | 47905 | 63346
5 | 14:04.47 | 3:44.35 | 63347 | 80181
6 | 17:49.07 | 6:17.25 | 80182 | 108481
7 | 24:06.32 | 2:59.38 | 108482 | 121944
8 | 27:05.70 | 7:42.42 | 121945 | 156636


Range status and errors

Selected range

Filename C:\BlondStyle\Aretha Franklin - Aretha's Jazz.wav

Peak level 96.2 %
Range quality 100.0 %
Test CRC C5C539C0
Copy CRC C5C539C0
Copy OK

No errors occurred


AccurateRip summary

Track 1 accurately ripped (confidence 4) [8FD051C7]
Track 2 accurately ripped (confidence 4) [29E76460]
Track 3 accurately ripped (confidence 4) [D0B7FFCD]
Track 4 accurately ripped (confidence 4) [0A702469]
Track 5 accurately ripped (confidence 4) [8ADDDF07]
Track 6 accurately ripped (confidence 4) [05FFF421]
Track 7 accurately ripped (confidence 4) [F6C0F292]
Track 8 accurately ripped (confidence 4) [684011BB]

All tracks accurately ripped

End of status report

––––––––––––––––––––––––––––––––––––––––
Analyzed: Aretha Franklin / Aretha's Jazz
––––––––––––––––––––––––––––––––––––––––

DR Peak RMS Duration Track
––––––––––––––––––––––––––––––––––––––––
DR11 -0.33 dB -15.37 dB 3:09 01-Ramblin'
DR13 -0.48 dB -19.81 dB 4:25 02-Today I Sing The Blues
DR12 -0.99 dB -16.80 dB 3:04 03-Pitiful
DR12 -6.59 dB -24.20 dB 3:26 04-Crazy He Calls Me
DR11 -1.55 dB -16.24 dB 3:44 05-Bring It On Home To Me
DR12 -3.20 dB -19.53 dB 6:17 06-Somewhere
DR13 -1.30 dB -17.03 dB 3:00 07-Moody's Mood
DR12 -0.60 dB -17.19 dB 7:43 08-Just Right Tonight
––––––––––––––––––––––––––––––––––––––––

Number of tracks: 8
Official DR value: DR12

Samplerate: 44100 Hz
Channels: 2
Bits per sample: 16
Bitrate: 753 kbps
Codec: FLAC
================================================================================

password: BlondStyle