Tags
Language
Tags

Art Farmer - Modern Art (1958) Japanese Remastered Reissue 2001

Posted By: Designol
Art Farmer - Modern Art (1958) Japanese Remastered Reissue 2001

Art Farmer - Modern Art (1958) Japanese Remastered 2001
with Benny Golson, Bill Evans, Addison Farmer, Dave Bailey

EAC | FLAC | Tracks (Cue&Log) ~ 266 Mb | Mp3 (CBR320) ~ 128 Mb | Scans included
Bop, Hard Bop, Cool | Label: Liberty/Toshiba-EMI | # TOCJ-9336 | Time: 00:40:15

Modern Art is the prelude recording for Art Farmer prior to his partnership with Benny Golson in the Jazztet, and also foreshadows the classy, tasteful inventiveness that group brought to the modern jazz world two years after this 1958 session. Pianist Bill Evans is in here, just before his pivotal work with Miles Davis on the classic album Kind of Blue, and was the table setter for McCoy Tyner's membership in the Jazztet. Brother Addison Farmer on bass and the great drummer Dave Bailey round out this sterling quintet that specializes in playing music with a subtle approach, which is neither tame nor conservatively lazy. Included on this date is the great Junior Mance tune "Jubilation," perfectly understated in a light gospel, soul-jazz, tuneful melody with both horns wonderfully matched up in balanced unison, side by side. Farmer's lone compositional contribution, "Mox Nix," deserves similar iconic accolades, as it is an equally memorable, hopped-up shuffle with the uncharacteristically rumbling piano of Evans in soul-jazz to swing trim. Another notable track is Wade Legge's "Cold Breeze," which is hardly refrigerated, but instead a breezy hard bop vehicle, snappy, even-keeled, but not bubbling. The trumpeter, after all, is the official leader and arranger, taking the stage front and center for the ballad "Darn That Dream" and the midtempo take of "The Touch of Your Lips," with Golson in late, seconding the motions. For this time period, you clearly hear a refined and maturing Farmer, qualities he would retain for the remainder of his substantial career. He plops in the mute for Cole Porter's "I Love You," waxing poetic and effortlessly like a figure skater gliding through a simple routine, and Evans even gets to jam out a bit. Benny Golson's personal voice on tenor is also coming of age, as you hear during his feature "Like Someone in Love," but he's also starting to emerge as a writer with the moderately swinging "Fair Weather," displaying harmonic interplay that hints at things to come. The historical aspects of this recording, in retrospect, cannot be trivialized, but more importantly, some darn good straight-ahead jazz is played here by experts in their field.

Review by Michael G. Nastos, Allmusic.com

Art Farmer - Modern Art (1958) Japanese Remastered Reissue 2001



Performers:

Art Farmer - trumpet
Benny Golson - tenor saxophone
Bill Evans - piano
Addison Farmer - bass
Dave Bailey - drums

Recorded at Nola's Penthouse, New York on September 10-14, 1958.

Tracklist:

01. Mox Nix (04:39)
02. Fair Weather (05:42)
03. Darn That Dream (03:57)
04. The Touch of Your Lips (04:52)
05. Jubilation (04:15)
06. Like Someone in Love (05:55)
07. I Love You (06:58)
08. Cold Breeze (03:53)


Exact Audio Copy V1.1 from 23. June 2015

EAC extraction logfile from 21. April 2016, 19:45

Art Farmer / Modern Art

Used drive : HL-DT-STDVD+-RW GS30N Adapter: 1 ID: 0

Read mode : Secure
Utilize accurate stream : Yes
Defeat audio cache : Yes
Make use of C2 pointers : No

Read offset correction : 667
Overread into Lead-In and Lead-Out : No
Fill up missing offset samples with silence : Yes
Delete leading and trailing silent blocks : No
Null samples used in CRC calculations : Yes
Used interface : Native Win32 interface for Win NT & 2000
Gap handling : Appended to previous track

Used output format : User Defined Encoder
Selected bitrate : 1024 kBit/s
Quality : High
Add ID3 tag : No
Command line compressor : C:\Program Files (x86)\Exact Audio Copy\FLAC\FLAC.EXE
Additional command line options : -6 -V -T "ARTIST=%artist%" -T "TITLE=%title%" -T "ALBUM=%albumtitle%" -T "DATE=%year%" -T "TRACKNUMBER=%tracknr%" -T "GENRE=%genre%" -T "COMMENT=%comment%" -T "BAND=%albuminterpret%" -T "ALBUMARTIST=%albuminterpret%" -T "COMPOSER=%composer%" %haslyrics%–tag-from-file=LYRICS="%lyricsfile%"%haslyrics% -T "DISCNUMBER=%cdnumber%" -T "TOTALDISCS=%totalcds%" -T "TOTALTRACKS=%numtracks%" %hascover%–picture="%coverfile%"%hascover% %source% -o %dest%


TOC of the extracted CD

Track | Start | Length | Start sector | End sector
––––––––––––––––––––––––––––-
1 | 0:00.00 | 4:39.72 | 0 | 20996
2 | 4:39.72 | 5:42.13 | 20997 | 46659
3 | 10:22.10 | 3:57.33 | 46660 | 64467
4 | 14:19.43 | 4:52.54 | 64468 | 86421
5 | 19:12.22 | 4:15.42 | 86422 | 105588
6 | 23:27.64 | 5:55.09 | 105589 | 132222
7 | 29:22.73 | 6:58.42 | 132223 | 163614
8 | 36:21.40 | 3:53.46 | 163615 | 181135


Track 1

Filename D:\music\Art Farmer - Modern Art\01. Art Farmer - Mox Nix.wav

Pre-gap length 0:00:02.00

Peak level 97.9 %
Extraction speed 2.9 X
Track quality 100.0 %
Test CRC 996D4C10
Copy CRC 996D4C10
Accurately ripped (confidence 4) [1D734AFE] (AR v1)
Copy OK

Track 2

Filename D:\music\Art Farmer - Modern Art\02. Art Farmer - Fair Weather.wav

Pre-gap length 0:00:02.27

Peak level 97.9 %
Extraction speed 3.3 X
Track quality 100.0 %
Test CRC 0918837D
Copy CRC 0918837D
Accurately ripped (confidence 4) [BA1FD051] (AR v1)
Copy OK

Track 3

Filename D:\music\Art Farmer - Modern Art\03. Art Farmer - Darn That Dream.wav

Pre-gap length 0:00:02.06

Peak level 97.9 %
Extraction speed 3.6 X
Track quality 100.0 %
Test CRC 0F126B1E
Copy CRC 0F126B1E
Accurately ripped (confidence 4) [8BC61F12] (AR v1)
Copy OK

Track 4

Filename D:\music\Art Farmer - Modern Art\04. Art Farmer - The Touch Of Your Lips.wav

Pre-gap length 0:00:02.23

Peak level 97.9 %
Extraction speed 3.9 X
Track quality 100.0 %
Test CRC C40B2CB0
Copy CRC C40B2CB0
Accurately ripped (confidence 4) [8D465CB1] (AR v1)
Copy OK

Track 5

Filename D:\music\Art Farmer - Modern Art\05. Art Farmer - Jubilation.wav

Pre-gap length 0:00:01.36

Peak level 97.7 %
Extraction speed 4.1 X
Track quality 100.0 %
Test CRC 0BE54343
Copy CRC 0BE54343
Accurately ripped (confidence 4) [93CE5BCE] (AR v1)
Copy OK

Track 6

Filename D:\music\Art Farmer - Modern Art\06. Art Farmer - Like Someone In Love.wav

Pre-gap length 0:00:02.38

Peak level 97.9 %
Extraction speed 4.5 X
Track quality 100.0 %
Test CRC E20621D6
Copy CRC E20621D6
Accurately ripped (confidence 4) [5396C036] (AR v1)
Copy OK

Track 7

Filename D:\music\Art Farmer - Modern Art\07. Art Farmer - I Love You.wav

Pre-gap length 0:00:01.64

Peak level 97.9 %
Extraction speed 4.9 X
Track quality 100.0 %
Test CRC 0A62925E
Copy CRC 0A62925E
Accurately ripped (confidence 4) [9749427E] (AR v1)
Copy OK

Track 8

Filename D:\music\Art Farmer - Modern Art\08. Art Farmer - Cold Breeze.wav

Pre-gap length 0:00:02.09

Peak level 97.9 %
Extraction speed 4.8 X
Track quality 100.0 %
Test CRC E59BA1F8
Copy CRC E59BA1F8
Accurately ripped (confidence 4) [8CE33BA4] (AR v1)
Copy OK


All tracks accurately ripped

No errors occurred

End of status report

–– CUETools DB Plugin V2.1.6

[CTDB TOCID: lndXgFKhia4Ykf6uKU0qTDpNczo-] found
Submit result: lndXgFKhia4Ykf6uKU0qTDpNczo- has been confirmed
Track | CTDB Status
1 | (2/2) Accurately ripped
2 | (2/2) Accurately ripped
3 | (2/2) Accurately ripped
4 | (2/2) Accurately ripped
5 | (2/2) Accurately ripped
6 | (2/2) Accurately ripped
7 | (2/2) Accurately ripped
8 | (2/2) Accurately ripped


==== Log checksum D28B85530992C6EC85554D604F37AC70843158C541A3B6DF64CDB184C237D89F ====

foobar2000 1.2 / Dynamic Range Meter 1.1.1
log date: 2016-04-27 13:56:32

––––––––––––––––––––––––––––––––––––––––
Analyzed: Art Farmer / Modern Art
––––––––––––––––––––––––––––––––––––––––

DR Peak RMS Duration Track
––––––––––––––––––––––––––––––––––––––––
DR11 -0.18 dB -14.47 dB 4:40 01-Mox Nix
DR11 -0.18 dB -13.37 dB 5:42 02-Fair Weather
DR12 -0.18 dB -15.01 dB 3:57 03-Darn That Dream
DR12 -0.18 dB -15.12 dB 4:53 04-The Touch of Your Lips
DR13 -0.19 dB -15.55 dB 4:16 05-Jubilation
DR11 -0.18 dB -14.87 dB 5:55 06-Like Someone in Love
DR11 -0.18 dB -14.20 dB 6:59 07-I Love You
DR11 -0.18 dB -14.11 dB 3:54 08-Cold Breeze
––––––––––––––––––––––––––––––––––––––––

Number of tracks: 8
Official DR value: DR12

Samplerate: 44100 Hz
Channels: 2
Bits per sample: 16
Bitrate: 871 kbps
Codec: FLAC
================================================================================

Art Farmer - Modern Art (1958) Japanese Remastered Reissue 2001

Art Farmer - Modern Art (1958) Japanese Remastered Reissue 2001

All thanks to original releaser - measet

More interesting music in My Blog