Tags
Language
Tags
April 2024
Su Mo Tu We Th Fr Sa
31 1 2 3 4 5 6
7 8 9 10 11 12 13
14 15 16 17 18 19 20
21 22 23 24 25 26 27
28 29 30 1 2 3 4

Art Of Noise - Into Battle With The Art Of Noise (1983) [Reissue 2011] (Re-up)

Posted By: gribovar
Art Of Noise - Into Battle With The Art Of Noise (1983) [Reissue 2011] (Re-up)

Art Of Noise - Into Battle With The Art Of Noise (1983) [Reissue 2011]
EAC Rip | FLAC (tracks+.cue+log) - 383 MB | MP3 CBR 320 kbps (LAME 3.93) - 160 MB | Covers - 14 MB
Genre: Synth-pop, Electronic, Experimental | RAR 3% Rec. | Label: ZTT/Salvo (Element 16, SALVOCD049)

For a while back in the early ’80s Trevor Horn, Anne Dudley, Gary Langan and J.J. Jeczalik were just another group of musicians messing around with ideas in the studio. When journalist and copywriter Paul Morley (working with their record company ZTT at the time) presented an eight page manifesto defining the band and their guiding principles, The Art of Noise was born. Morley became a critical part of the The Art of Noise, contributing ideas, song titles and taking control the band’s image and the presentation of the records. Considering themselves an art-meets-pop project, a ‘hit’ record was not really on the agenda, but that is what happened in May 1984 when Close (to the Edit) hit the UK top ten.
For better or for worse, this adjusted their thinking with regards to the album that was in the planning, and the playful and meandering 18-track album (named ‘Worship’) became the more focussed and arguably more commercial, 9-track (Who’s Afraid Of?) The Art of Noise.
ZTT/Salvo have brought together the unreleased Worship album, and the debut EP Into Battle, to form the 27 track compilation called simply Into Battle with the Art of Noise. Worship follows Into Battle on this new release so the running order of both is preserved.
Tracklist:

Into Battle:
01. Battle
02. Beat Box
03. The Army Now
04. Donna
05. Moments In Love
06. Bright Noise
07. Flesh In Armour
08. Comes And Goes
09. Moment In Love

Worship:
10. Who's Afraid Of The Art Of Noise?
11. One Finger Of Love
12. Diversions 1
13. Two Fingers Of Love
14. The Uncertainty Of Syrup
15. Damn It All!
16. Three Fingers Of Love
17. Sign Of Relief
18. Hands Off Love
19. Diversions 5
20. Goodbye, Art Of Noise
21. Confession
22. Close (To The Edit)
23. Diversions 3
24. The Movement Of Desire
25. And What Have You Done With My Body God?
26. The Wounds Of Wonder
27. A Time For Fear (Who's Afraid?)

Total time: 01:08:08

Exact Audio Copy V1.3 from 2. September 2016

EAC extraction logfile from 24. December 2017, 19:36

Art Of Noise / Into Battle With The Art Of Noise

Used drive : hp BDDVDRW CH28N Adapter: 1 ID: 0

Read mode : Secure
Utilize accurate stream : Yes
Defeat audio cache : Yes
Make use of C2 pointers : No

Read offset correction : 667
Overread into Lead-In and Lead-Out : No
Fill up missing offset samples with silence : Yes
Delete leading and trailing silent blocks : No
Null samples used in CRC calculations : Yes
Used interface : Native Win32 interface for Win NT & 2000
Gap handling : Appended to previous track

Used output format : User Defined Encoder
Selected bitrate : 1024 kBit/s
Quality : High
Add ID3 tag : No
Command line compressor : C:\Program Files (x86)\Exact Audio Copy\Flac\flac.exe
Additional command line options : -8 -e -p -V -T "ARTIST=%artist%" -T "TITLE=%title%" -T "ALBUM=%albumtitle%" -T "DATE=%year%" -T "TRACKNUMBER=%tracknr%" -T "GENRE=%genre%" -T "PERFORMER=%albuminterpret%" -T "COMPOSER=%composer%" %haslyrics%–tag-from-file=LYRICS="%lyricsfile%"%haslyrics% -T "ALBUMARTIST=%albumartist%" -T "DISCNUMBER=%cdnumber%" -T "TOTALDISCS=%totalcds%" -T "TOTALTRACKS=%numtracks%" -T "COMMENT=%comment%" %source% -o %dest%


TOC of the extracted CD

Track | Start | Length | Start sector | End sector
––––––––––––––––––––––––––––-
1 | 0:00.00 | 0:27.08 | 0 | 2032
2 | 0:27.08 | 4:49.41 | 2033 | 23748
3 | 5:16.49 | 2:02.04 | 23749 | 32902
4 | 7:18.53 | 1:43.74 | 32903 | 40701
5 | 9:02.52 | 5:12.21 | 40702 | 64122
6 | 14:14.73 | 0:05.73 | 64123 | 64570
7 | 14:20.71 | 1:25.24 | 64571 | 70969
8 | 15:46.20 | 1:19.08 | 70970 | 76902
9 | 17:05.28 | 1:29.00 | 76903 | 83577
10 | 18:34.28 | 2:46.51 | 83578 | 96078
11 | 21:21.04 | 0:24.43 | 96079 | 97921
12 | 21:45.47 | 8:26.55 | 97922 | 135926
13 | 30:12.27 | 0:55.19 | 135927 | 140070
14 | 31:07.46 | 1:20.67 | 140071 | 146137
15 | 32:28.38 | 1:43.64 | 146138 | 153926
16 | 34:12.27 | 0:42.59 | 153927 | 157135
17 | 34:55.11 | 1:28.11 | 157136 | 163746
18 | 36:23.22 | 0:54.36 | 163747 | 167832
19 | 37:17.58 | 3:44.10 | 167833 | 184642
20 | 41:01.68 | 0:38.22 | 184643 | 187514
21 | 41:40.15 | 1:02.35 | 187515 | 192199
22 | 42:42.50 | 4:06.57 | 192200 | 210706
23 | 46:49.32 | 3:52.19 | 210707 | 228125
24 | 50:41.51 | 3:43.54 | 228126 | 244904
25 | 54:25.30 | 4:38.46 | 244905 | 265800
26 | 59:04.01 | 4:21.30 | 265801 | 285405
27 | 63:25.31 | 4:42.65 | 285406 | 306620


Track 1

Filename C:\utorrent2\Art Of Noise - Into Battle With The Art Of Noise [2011] [flac]\01 - Battle.wav

Pre-gap length 0:00:02.00

Peak level 79.6 %
Extraction speed 0.9 X
Track quality 100.0 %
Test CRC 5D226057
Copy CRC 5D226057
Accurately ripped (confidence 56) [30B74056] (AR v2)
Copy OK

Track 2

Filename C:\utorrent2\Art Of Noise - Into Battle With The Art Of Noise [2011] [flac]\02 - Beat Box.wav

Peak level 98.9 %
Extraction speed 2.1 X
Track quality 100.0 %
Test CRC E6C18047
Copy CRC E6C18047
Accurately ripped (confidence 56) [22928690] (AR v2)
Copy OK

Track 3

Filename C:\utorrent2\Art Of Noise - Into Battle With The Art Of Noise [2011] [flac]\03 - The Army Now.wav

Pre-gap length 0:00:00.93

Peak level 95.0 %
Extraction speed 1.9 X
Track quality 100.0 %
Test CRC 6B893873
Copy CRC 6B893873
Accurately ripped (confidence 56) [65B6E55E] (AR v2)
Copy OK

Track 4

Filename C:\utorrent2\Art Of Noise - Into Battle With The Art Of Noise [2011] [flac]\04 - Donna.wav

Pre-gap length 0:00:00.30

Peak level 95.3 %
Extraction speed 1.9 X
Track quality 100.0 %
Test CRC F5FD86F5
Copy CRC F5FD86F5
Accurately ripped (confidence 56) [030EC693] (AR v2)
Copy OK

Track 5

Filename C:\utorrent2\Art Of Noise - Into Battle With The Art Of Noise [2011] [flac]\05 - Moments in Love.wav

Pre-gap length 0:00:01.38

Peak level 97.1 %
Extraction speed 2.5 X
Track quality 100.0 %
Test CRC 5D5CB13F
Copy CRC 5D5CB13F
Accurately ripped (confidence 56) [554BC550] (AR v2)
Copy OK

Track 6

Filename C:\utorrent2\Art Of Noise - Into Battle With The Art Of Noise [2011] [flac]\06 - Bright Noise.wav

Pre-gap length 0:00:01.60

Peak level 59.4 %
Extraction speed 0.2 X
Track quality 98.1 %
Test CRC A9ADF18A
Copy CRC A9ADF18A
Accurately ripped (confidence 29) [DE133F93] (AR v2)
Copy OK

Track 7

Filename C:\utorrent2\Art Of Noise - Into Battle With The Art Of Noise [2011] [flac]\07 - Flesh in Armour.wav

Peak level 90.1 %
Extraction speed 1.6 X
Track quality 99.8 %
Test CRC 56AC4F66
Copy CRC 56AC4F66
Accurately ripped (confidence 56) [E0816016] (AR v2)
Copy OK

Track 8

Filename C:\utorrent2\Art Of Noise - Into Battle With The Art Of Noise [2011] [flac]\08 - Comes and Goes.wav

Pre-gap length 0:00:00.69

Peak level 77.2 %
Extraction speed 2.1 X
Track quality 100.0 %
Test CRC 9DE1DD10
Copy CRC 9DE1DD10
Accurately ripped (confidence 56) [C1DBBF4D] (AR v2)
Copy OK

Track 9

Filename C:\utorrent2\Art Of Noise - Into Battle With The Art Of Noise [2011] [flac]\09 - Moment in Love.wav

Pre-gap length 0:00:00.72

Peak level 93.3 %
Extraction speed 2.1 X
Track quality 100.0 %
Test CRC 1C02704C
Copy CRC 1C02704C
Accurately ripped (confidence 56) [455B7E6F] (AR v2)
Copy OK

Track 10

Filename C:\utorrent2\Art Of Noise - Into Battle With The Art Of Noise [2011] [flac]\10 - Who's Afraid of the Art of Noise.wav

Pre-gap length 0:00:01.09

Peak level 75.2 %
Extraction speed 2.6 X
Track quality 100.0 %
Test CRC 82B514A7
Copy CRC 82B514A7
Accurately ripped (confidence 56) [154FB6A8] (AR v2)
Copy OK

Track 11

Filename C:\utorrent2\Art Of Noise - Into Battle With The Art Of Noise [2011] [flac]\11 - One Finger of Love.wav

Peak level 44.9 %
Extraction speed 0.8 X
Track quality 99.5 %
Test CRC 6A0BC4D7
Copy CRC 6A0BC4D7
Accurately ripped (confidence 56) [31E081FE] (AR v2)
Copy OK

Track 12

Filename C:\utorrent2\Art Of Noise - Into Battle With The Art Of Noise [2011] [flac]\12 - Diversions 1.wav

Peak level 98.6 %
Extraction speed 3.2 X
Track quality 100.0 %
Test CRC 963CFEBD
Copy CRC 963CFEBD
Accurately ripped (confidence 56) [CC90720A] (AR v2)
Copy OK

Track 13

Filename C:\utorrent2\Art Of Noise - Into Battle With The Art Of Noise [2011] [flac]\13 - Two Fingers of Love.wav

Peak level 61.9 %
Extraction speed 2.1 X
Track quality 100.0 %
Test CRC 594B6E63
Copy CRC 594B6E63
Accurately ripped (confidence 56) [A0018673] (AR v2)
Copy OK

Track 14

Filename C:\utorrent2\Art Of Noise - Into Battle With The Art Of Noise [2011] [flac]\14 - The Uncertainty of Syrup.wav

Pre-gap length 0:00:00.66

Peak level 96.1 %
Extraction speed 2.5 X
Track quality 100.0 %
Test CRC 200AC93F
Copy CRC 200AC93F
Accurately ripped (confidence 56) [A5E8C0BE] (AR v2)
Copy OK

Track 15

Filename C:\utorrent2\Art Of Noise - Into Battle With The Art Of Noise [2011] [flac]\15 - Damn It All!.wav

Peak level 90.3 %
Extraction speed 2.7 X
Track quality 100.0 %
Test CRC 34709A0B
Copy CRC 34709A0B
Accurately ripped (confidence 56) [D730DC59] (AR v2)
Copy OK

Track 16

Filename C:\utorrent2\Art Of Noise - Into Battle With The Art Of Noise [2011] [flac]\16 - Three Fingers of Love.wav

Peak level 55.6 %
Extraction speed 1.3 X
Track quality 99.7 %
Test CRC 69023CF9
Copy CRC 69023CF9
Accurately ripped (confidence 55) [635C68BD] (AR v2)
Copy OK

Track 17

Filename C:\utorrent2\Art Of Noise - Into Battle With The Art Of Noise [2011] [flac]\17 - Sign of Relief.wav

Pre-gap length 0:00:00.88

Peak level 93.4 %
Extraction speed 2.7 X
Track quality 100.0 %
Test CRC BE2386ED
Copy CRC BE2386ED
Accurately ripped (confidence 56) [E5085E37] (AR v2)
Copy OK

Track 18

Filename C:\utorrent2\Art Of Noise - Into Battle With The Art Of Noise [2011] [flac]\18 - Hands Off Love.wav

Pre-gap length 0:00:01.14

Peak level 57.8 %
Extraction speed 2.2 X
Track quality 100.0 %
Test CRC 1FA32E31
Copy CRC 1FA32E31
Accurately ripped (confidence 56) [CA959B01] (AR v2)
Copy OK

Track 19

Filename C:\utorrent2\Art Of Noise - Into Battle With The Art Of Noise [2011] [flac]\19 - Diversions 5.wav

Peak level 98.8 %
Extraction speed 3.4 X
Track quality 100.0 %
Test CRC D6E64A56
Copy CRC D6E64A56
Accurately ripped (confidence 56) [393B0CE9] (AR v2)
Copy OK

Track 20

Filename C:\utorrent2\Art Of Noise - Into Battle With The Art Of Noise [2011] [flac]\20 - Goodbye, Art of Noise.wav

Pre-gap length 0:00:00.69

Peak level 91.2 %
Extraction speed 2.0 X
Track quality 100.0 %
Test CRC FB77D72C
Copy CRC FB77D72C
Accurately ripped (confidence 56) [2E5867A4] (AR v2)
Copy OK

Track 21

Filename C:\utorrent2\Art Of Noise - Into Battle With The Art Of Noise [2011] [flac]\21 - Confession.wav

Pre-gap length 0:00:01.02

Peak level 93.5 %
Extraction speed 2.5 X
Track quality 100.0 %
Test CRC 4483F8E0
Copy CRC 4483F8E0
Accurately ripped (confidence 56) [03FF3802] (AR v2)
Copy OK

Track 22

Filename C:\utorrent2\Art Of Noise - Into Battle With The Art Of Noise [2011] [flac]\22 - Close (to the Edit).wav

Peak level 97.4 %
Extraction speed 3.6 X
Track quality 100.0 %
Test CRC 3FDB1713
Copy CRC 3FDB1713
Accurately ripped (confidence 56) [13F00D36] (AR v2)
Copy OK

Track 23

Filename C:\utorrent2\Art Of Noise - Into Battle With The Art Of Noise [2011] [flac]\23 - Diversions 3.wav

Peak level 95.3 %
Extraction speed 3.7 X
Track quality 100.0 %
Test CRC 3F098AC6
Copy CRC 3F098AC6
Accurately ripped (confidence 56) [E78CC8AA] (AR v2)
Copy OK

Track 24

Filename C:\utorrent2\Art Of Noise - Into Battle With The Art Of Noise [2011] [flac]\24 - The Movement of Desire.wav

Peak level 91.6 %
Extraction speed 3.8 X
Track quality 100.0 %
Test CRC 47F09897
Copy CRC 47F09897
Accurately ripped (confidence 56) [6C95BFCB] (AR v2)
Copy OK

Track 25

Filename C:\utorrent2\Art Of Noise - Into Battle With The Art Of Noise [2011] [flac]\25 - And What Have You Done With My Body, God.wav

Pre-gap length 0:00:00.89

Peak level 95.0 %
Extraction speed 4.0 X
Track quality 100.0 %
Test CRC C41A75E8
Copy CRC C41A75E8
Accurately ripped (confidence 55) [6DECA539] (AR v2)
Copy OK

Track 26

Filename C:\utorrent2\Art Of Noise - Into Battle With The Art Of Noise [2011] [flac]\26 - The Wounds of Wonder.wav

Pre-gap length 0:00:00.58

Peak level 97.9 %
Extraction speed 4.1 X
Track quality 100.0 %
Test CRC 96B91555
Copy CRC 96B91555
Accurately ripped (confidence 56) [557A7884] (AR v2)
Copy OK

Track 27

Filename C:\utorrent2\Art Of Noise - Into Battle With The Art Of Noise [2011] [flac]\27 - A Time for Fear (Who's Afraid).wav

Pre-gap length 0:00:00.48

Peak level 95.4 %
Extraction speed 3.7 X
Track quality 99.9 %
Test CRC B62873E8
Copy CRC B62873E8
Accurately ripped (confidence 53) [B9DAA855] (AR v2)
Copy OK


All tracks accurately ripped

No errors occurred

End of status report

–– CUETools DB Plugin V2.1.6

[CTDB TOCID: ogyJC.VI79Zcz8xF2vaHtu9aICQ-] found
Submit result: ogyJC.VI79Zcz8xF2vaHtu9aICQ- has been confirmed
Track | CTDB Status
1 | (47/47) Accurately ripped
2 | (47/47) Accurately ripped
3 | (47/47) Accurately ripped
4 | (47/47) Accurately ripped
5 | (47/47) Accurately ripped
6 | (47/47) Accurately ripped
7 | (47/47) Accurately ripped
8 | (47/47) Accurately ripped
9 | (47/47) Accurately ripped
10 | (47/47) Accurately ripped
11 | (47/47) Accurately ripped
12 | (47/47) Accurately ripped
13 | (47/47) Accurately ripped
14 | (47/47) Accurately ripped
15 | (47/47) Accurately ripped
16 | (47/47) Accurately ripped
17 | (47/47) Accurately ripped
18 | (47/47) Accurately ripped
19 | (47/47) Accurately ripped
20 | (47/47) Accurately ripped
21 | (47/47) Accurately ripped
22 | (47/47) Accurately ripped
23 | (47/47) Accurately ripped
24 | (47/47) Accurately ripped
25 | (47/47) Accurately ripped
26 | (47/47) Accurately ripped
27 | (47/47) Accurately ripped


==== Log checksum 6A1919A97E3AA593D729CC2D4C489B6962F2E1DD149AEEDDD9024BFAE82D9A47 ====

[CUETools log; Date: 09.07.2022 19:00:57; Version: 2.1.4]
[CTDB TOCID: ogyJC.VI79Zcz8xF2vaHtu9aICQ-] found.
Track | CTDB Status
1 | (113/113) Accurately ripped
2 | (113/113) Accurately ripped
3 | (113/113) Accurately ripped
4 | (113/113) Accurately ripped
5 | (113/113) Accurately ripped
6 | (113/113) Accurately ripped
7 | (113/113) Accurately ripped
8 | (113/113) Accurately ripped
9 | (113/113) Accurately ripped
10 | (113/113) Accurately ripped
11 | (113/113) Accurately ripped
12 | (113/113) Accurately ripped
13 | (113/113) Accurately ripped
14 | (113/113) Accurately ripped
15 | (113/113) Accurately ripped
16 | (113/113) Accurately ripped
17 | (113/113) Accurately ripped
18 | (113/113) Accurately ripped
19 | (113/113) Accurately ripped
20 | (113/113) Accurately ripped
21 | (113/113) Accurately ripped
22 | (113/113) Accurately ripped
23 | (113/113) Accurately ripped
24 | (113/113) Accurately ripped
25 | (113/113) Accurately ripped
26 | (112/113) Accurately ripped
27 | (108/113) Accurately ripped, or (2/113) differs in 584 samples @04:42:48-04:42:53, or (2/113) differs in 591 samples @04:42:47-04:42:53
[AccurateRip ID: 003a5a6c-046d4700-7a0ff81b] found.
Track [ CRC | V2 ] Status
01 [968c3829|30b74056] (08+84/92) Accurately ripped
02 [3fee1f4f|22928690] (08+84/92) Accurately ripped
03 [f2bd022a|65b6e55e] (08+84/92) Accurately ripped
04 [1b79586d|030ec693] (08+85/93) Accurately ripped
05 [2a33ad14|554bc550] (08+83/91) Accurately ripped
06 [c7337d9a|de133f93] (02+46/48) Accurately ripped
07 [beacf8c4|e0816016] (08+83/91) Accurately ripped
08 [ff9bebee|c1dbbf4d] (08+83/91) Accurately ripped
09 [61ba3d65|455b7e6f] (08+84/92) Accurately ripped
10 [3762fc9a|154fb6a8] (08+84/92) Accurately ripped
11 [d10c2290|31e081fe] (08+84/92) Accurately ripped
12 [698cde6a|cc90720a] (08+84/92) Accurately ripped
13 [c6706e58|a0018673] (08+84/92) Accurately ripped
14 [760168f1|a5e8c0be] (08+84/92) Accurately ripped
15 [4d6b42a0|d730dc59] (08+84/92) Accurately ripped
16 [1e33d258|635c68bd] (08+83/91) Accurately ripped
17 [a37c8eff|e5085e37] (08+84/92) Accurately ripped
18 [cf8b65b1|ca959b01] (08+84/92) Accurately ripped
19 [4787075a|393b0ce9] (08+84/92) Accurately ripped
20 [45e5035b|2e5867a4] (08+84/92) Accurately ripped
21 [c236e4a5|03ff3802] (08+84/92) Accurately ripped
22 [4f35e67e|13f00d36] (09+84/93) Accurately ripped
23 [17429016|e78cc8aa] (08+84/92) Accurately ripped
24 [d13fcb26|6c95bfcb] (08+84/92) Accurately ripped
25 [16c41431|6deca539] (08+83/91) Accurately ripped
26 [ae4af487|557a7884] (08+84/92) Accurately ripped
27 [7c098b43|b9daa855] (08+82/90) Accurately ripped

Track Peak [ CRC32 ] [W/O NULL] [ LOG ]
– 98,9 [CF954F2B] [F0E78A80]
01 79,6 [5D226057] [423C64CF] CRC32
02 98,9 [E6C18047] [983382DE] CRC32
03 95,0 [6B893873] [4DC99C0A] CRC32
04 95,3 [F5FD86F5] [F6DC2DBA] CRC32
05 97,1 [5D5CB13F] [5489150F] CRC32
06 59,4 [A9ADF18A] [8C88D248] CRC32
07 90,1 [56AC4F66] [FEE2B8C6] CRC32
08 77,2 [9DE1DD10] [D3A863BB] CRC32
09 93,3 [1C02704C] [0D89E7E3] CRC32
10 75,2 [82B514A7] [267FFE3E] CRC32
11 44,9 [6A0BC4D7] [8F581CFB] CRC32
12 98,6 [963CFEBD] [6232ED3B] CRC32
13 61,9 [594B6E63] [19967A71] CRC32
14 96,1 [200AC93F] [F9B98F0A] CRC32
15 90,3 [34709A0B] [71E936C2] CRC32
16 55,6 [69023CF9] [ACBA2A0B] CRC32
17 93,4 [BE2386ED] [FCC58CA9] CRC32
18 57,8 [1FA32E31] [36AD579B] CRC32
19 98,8 [D6E64A56] [038CBC3C] CRC32
20 91,2 [FB77D72C] [7164E39D] CRC32
21 93,5 [4483F8E0] [9EFC6884] CRC32
22 97,4 [3FDB1713] [6DE2D507] CRC32
23 95,3 [3F098AC6] [AA985A02] CRC32
24 91,6 [47F09897] [8A434145] CRC32
25 95,0 [C41A75E8] [BF79C814] CRC32
26 97,9 [96B91555] [11EB01D6] CRC32
27 95,4 [B62873E8] [C5187FCA] CRC32

Thanks to the original releaser

See also:
Art Of Noise - Moments In Love [Maxi-Single] (1985) [Reissue 1992]
Art Of Noise - Daft (1986) [Reissue 2003]
Art Of Noise - Re-works Of Art Of Noise (1986)
Art Of Noise - Reconstructed… For Your Listening Pleasure (2003)