Tags
Language
Tags

Arturo Sacchetti - Organ History: Erik Satie and French rarities of the XXth Century (2001)

Posted By: Designol
Arturo Sacchetti - Organ History: Erik Satie and French rarities of the XXth Century (2001)

Arturo Sacchetti - Organ History: Erik Satie and French rarities of the XXth Century (2001)
EAC | WV | Image (Cue&Log) ~ 303 Mb | Mp3 (CBR320) ~ 186 Mb | Scans included
Genre: Classical | Label: ARTS Music | # 47641-2 | Time: 01:14:04

The present installment of Arturo Sacchetti’s encyclopedic Organ History survey for Arts Music drops anchor in late-19th/early-20th-century France. It can be argued that the five instrumental sections from Satie’s Mass for the Poor that open this recital lose poignancy when shorn of their surrounding vocal movements, although the organ is a perfect instrument for the composer’s quirky, instantly identifiable harmonic language. By contrast, D’Indy’s Les Vêpres du Commun des Saints, Roussel’s Prélude et Fughetta, and Honegger’s Deux Pièces pour Orgue make an arid, academic impression. After Wayne Marshall’s pulverizing speed through the Pastorale by Roger-Ducasse (Virgin Classics), Sacchetti’s relatively conservative virtuosity proves less engaging. However, his incisive hand/foot coordination enliven Tournemire’s Improvisation on “Te Deum” and Langlais’ Hymne d’Actions de grâces “Te Deum”, although the latter yields to Andrew Herrick’s more vivid and better engineered traversal on Hyperion. Organists looking for an effective, unhackneyed encore should consider Ibert’s Musette or Milhaud’s Pastorale. Sacchetti plays both of them superbly and sensitively. If you own this series’ first 13 volumes, naturally you’ll not want to miss this one.

Review by Jed Distler, ClassicsToday.com

Arturo Sacchetti - Organ History: Erik Satie and French rarities of the XXth Century (2001)



Tracklist:

Erik Satie (1866-1925)
From Messe des Pauvres (1895):
01. Priere des Orgues (03:17)
02. Commune qui mundi nefas (02:21)
03. Chant Ecclesiastique (01:28)
04. Prière pour les voyageurs et les marins en danger de mort, à la très bonne et très auguste Vierge Marie, mère de Jésus (00:57)
05. Prière pour le salute de mon âme (03:26)

Vincent Paul Marie Theodore d'Indy (1851-1931)
Les vêpres du Commun des Saints, for organ, Op. 51
06. I. Qui Me Confessus Fuerite. Antienne Du I.er Mode (01:12)
07. II. Qui Sequitor Me Non Ambulat In Tenebris. Antienne Du 3.e Mode (02:19)
08. III. Qui Mihi Ministrat Me Sequatur. Antienne Du I.er Mode (01:50)
09. IV. Si Quis Mihi Ministraverit. Antienne Du I.er Mode (01:07)
10. V. Volo Pater. Antienne Du I.er Mode en A (02:27)
11. VI. À Magnificat (I.es Vêpres). Iste Sanctus. Antienne Du 8.e Mode (01:26)
12. VII. À Magnificat (II.es Vêpres). Qui Vult Venire Post Me. Antienne Du I.er Mode (02:34)
13. VIII. À Magnificat (II.Es Vêpres). Qui Odit Animam Suam In Hoc Mundo. Antienne Du 3.er Mode (00:59)

Albert Roussel (1869-1937)
14. Prelude & Fughetta, Op. 41 (1929) (04:47)

Charles Arnold Tournemire (1870-1939)
15. Improvisation sur le Te Deum (1930-31) (07:19)

Jean Jules Aimable Roger-Ducasse (1973-1954)
16. Pastorale (1909) (14:59)

Jaques François Antonine Ibert (1890-1962)
17. Musette (1920) (03:16)

Arthur Honneger (1892-1955)
Deux Pièces Pour Orgue, H. 14 (1917)
18. Fugue (03:39)
19. Choral (05:20)

Darius Milhaud (1892-1974)
20. Pastorale, Op 229 (1941) (03:44)

Jean Langlais (1907-1991)
21. Paraphrases Grégoriennes, Op. 5 (Hymne d'Actions de grâces Te Deum) (05:25)


Exact Audio Copy V0.99 prebeta 5 from 4. May 2009

EAC extraction logfile from 14. April 2010, 6:15

Arturo Sacchetti / Organ History - Erik Satie and French rarities of the XXth Century

Used drive : _NEC DVD_RW ND-3520A Adapter: 1 ID: 1

Read mode : Secure
Utilize accurate stream : Yes
Defeat audio cache : Yes
Make use of C2 pointers : No

Read offset correction : 48
Overread into Lead-In and Lead-Out : No
Fill up missing offset samples with silence : Yes
Delete leading and trailing silent blocks : No
Null samples used in CRC calculations : Yes
Used interface : Native Win32 interface for Win NT & 2000

Used output format : Internal WAV Routines
Sample format : 44.100 Hz; 16 Bit; Stereo


TOC of the extracted CD

Track | Start | Length | Start sector | End sector
––––––––––––––––––––––––––––-
1 | 0:00.00 | 3:17.47 | 0 | 14821
2 | 3:17.47 | 2:21.52 | 14822 | 25448
3 | 5:39.24 | 1:28.40 | 25449 | 32088
4 | 7:07.64 | 0:57.29 | 32089 | 36392
5 | 8:05.18 | 3:26.53 | 36393 | 51895
6 | 11:31.71 | 1:12.34 | 51896 | 57329
7 | 12:44.30 | 2:19.64 | 57330 | 67818
8 | 15:04.19 | 1:50.11 | 67819 | 76079
9 | 16:54.30 | 1:07.10 | 76080 | 81114
10 | 18:01.40 | 2:27.58 | 81115 | 92197
11 | 20:29.23 | 1:26.37 | 92198 | 98684
12 | 21:55.60 | 2:34.30 | 98685 | 110264
13 | 24:30.15 | 0:59.70 | 110265 | 114759
14 | 25:30.10 | 4:47.73 | 114760 | 136357
15 | 30:18.08 | 7:19.69 | 136358 | 169351
16 | 37:38.02 | 14:59.33 | 169352 | 236809
17 | 52:37.35 | 3:16.26 | 236810 | 251535
18 | 55:53.61 | 3:39.24 | 251536 | 267984
19 | 59:33.10 | 5:20.63 | 267985 | 292047
20 | 64:53.73 | 3:44.31 | 292048 | 308878
21 | 68:38.29 | 5:25.58 | 308879 | 333311


Range status and errors

Selected range

Filename D:\Erik Satie\Arturo Sacchetti - Organ History - Erik Satie and French rarities of the XXth Century.wav

Peak level 93.9 %
Range quality 99.9 %
Test CRC 155BC1A7
Copy CRC 155BC1A7
Copy OK

No errors occurred


AccurateRip summary

Track 1 not present in database
Track 2 not present in database
Track 3 not present in database
Track 4 not present in database
Track 5 not present in database
Track 6 not present in database
Track 7 not present in database
Track 8 not present in database
Track 9 not present in database
Track 10 not present in database
Track 11 not present in database
Track 12 not present in database
Track 13 not present in database
Track 14 not present in database
Track 15 not present in database
Track 16 not present in database
Track 17 not present in database
Track 18 not present in database
Track 19 not present in database
Track 20 not present in database
Track 21 not present in database

None of the tracks are present in the AccurateRip database

End of status report

[CUETools log; Date: 02.06.2016 15:27:40; Version: 2.1.4]
[CTDB TOCID: UOZLrAERp_2YhuFDrYguTBxZQEo-] found.
Track | CTDB Status
1 | (2/2) Accurately ripped
2 | (2/2) Accurately ripped
3 | (2/2) Accurately ripped
4 | (2/2) Accurately ripped
5 | (2/2) Accurately ripped
6 | (2/2) Accurately ripped
7 | (2/2) Accurately ripped
8 | (2/2) Accurately ripped
9 | (2/2) Accurately ripped
10 | (2/2) Accurately ripped
11 | (2/2) Accurately ripped
12 | (2/2) Accurately ripped
13 | (2/2) Accurately ripped
14 | (2/2) Accurately ripped
15 | (2/2) Accurately ripped
16 | (2/2) Accurately ripped
17 | (2/2) Accurately ripped
18 | (2/2) Accurately ripped
19 | (2/2) Accurately ripped
20 | (2/2) Accurately ripped
21 | (2/2) Accurately ripped
[AccurateRip ID: 002b910d-02c50512-1f115c15] found.
Track [ CRC | V2 ] Status
01 [f9c6881d|667eb59f] (0+2/2) Accurately ripped
02 [45c78999|fc909b1e] (0+2/2) Accurately ripped
03 [598b495e|a3a2dd94] (0+2/2) Accurately ripped
04 [99fbe9d0|1ca9bf61] (0+2/2) Accurately ripped
05 [89b9bc56|564993b8] (0+2/2) Accurately ripped
06 [6f3f42f6|4746e71b] (0+2/2) Accurately ripped
07 [c69f7611|7b025ac3] (0+2/2) Accurately ripped
08 [f7349a4a|87ca9666] (0+2/2) Accurately ripped
09 [41051e0a|cb7cbb56] (0+2/2) Accurately ripped
10 [c924fb1a|a3114a7c] (0+2/2) Accurately ripped
11 [20a03281|a8f08cf9] (0+2/2) Accurately ripped
12 [60cde57c|1120876b] (0+2/2) Accurately ripped
13 [039b8220|416b48d2] (0+2/2) Accurately ripped
14 [6ab646f0|e45a21df] (0+2/2) Accurately ripped
15 [03a9bd41|f67b9f3f] (0+2/2) Accurately ripped
16 [96e1a08a|6b553f4b] (0+2/2) Accurately ripped
17 [22de3bd5|ac7541f9] (0+2/2) Accurately ripped
18 [7d176a76|20d8def1] (0+2/2) Accurately ripped
19 [1fc50f0e|3d00d0c9] (0+2/2) Accurately ripped
20 [49a339b4|59c672f9] (0+2/2) Accurately ripped
21 [f40f404f|0706e958] (0+2/2) Accurately ripped

Track Peak [ CRC32 ] [W/O NULL] [ LOG ]
– 93,9 [155BC1A7] [164AAE80] CRC32
01 92,6 [072AE33F] [306A1BE1]
02 22,6 [A3FC9720] [C4CF0EC6]
03 57,1 [FCCABE72] [0BCB0251]
04 55,7 [CFE95A0A] [229BBECD]
05 15,9 [A4E6D4D7] [196B33EF]
06 48,2 [FC78EE29] [04F26EF9]
07 23,6 [B826649B] [0145DD06]
08 87,1 [B855D5CD] [FBD2B42C]
09 29,8 [26333E4B] [4C58704B]
10 42,6 [15EEB389] [F23BA0EB]
11 87,1 [D78176C8] [9939C997]
12 63,3 [A98E6D3C] [E39F9BBC]
13 79,9 [2DB799AE] [D06B4ECD]
14 92,1 [68D79435] [3BACB4EC]
15 89,4 [3B549571] [FB6367A4]
16 93,1 [7EEA839C] [15689D31]
17 62,8 [CBF2CE47] [F9B2C457]
18 34,9 [9D0BAC2F] [6FF87135]
19 40,3 [D77D4849] [613E713C]
20 25,6 [B02DBABA] [579F8FFD]
21 93,9 [1AD38249] [9C328D79]

foobar2000 1.2 / Dynamic Range Meter 1.1.1
log date: 2016-06-02 13:48:13

––––––––––––––––––––––––––––––––––––––––
Analyzed: Arturo Sacchetti / Organ History - Erik Satie and French rarities of the XXth Century
––––––––––––––––––––––––––––––––––––––––

DR Peak RMS Duration Track
––––––––––––––––––––––––––––––––––––––––
DR10 -0.66 dB -15.51 dB 3:18 01-Erik Satie - from Messe des Pauvres 1
DR9 -12.89 dB -26.18 dB 2:22 02-Erik Satie - from Messe des Pauvres 2
DR10 -4.87 dB -17.66 dB 1:29 03-Erik Satie - from Messe des Pauvres 3
DR9 -5.08 dB -16.85 dB 0:57 04-Erik Satie - from Messe des Pauvres 4
DR11 -15.96 dB -30.63 dB 3:27 05-Erik Satie - from Messe des Pauvres 5
DR9 -6.32 dB -18.23 dB 1:12 06-Vincent d'Indy - Les Vepres du Commun des Saints 1
DR9 -12.53 dB -27.22 dB 2:20 07-Vincent d'Indy - Les Vepres du Commun des Saints 2
DR10 -1.19 dB -14.20 dB 1:50 08-Vincent d'Indy - Les Vepres du Commun des Saints 3
DR7 -10.50 dB -21.98 dB 1:07 09-Vincent d'Indy - Les Vepres du Commun des Saints 4
DR10 -7.40 dB -20.23 dB 2:28 10-Vincent d'Indy - Les Vepres du Commun des Saints 5
DR10 -1.20 dB -17.09 dB 1:26 11-Vincent d'Indy - Les Vepres du Commun des Saints 6
DR10 -3.97 dB -18.41 dB 2:34 12-Vincent d'Indy - Les Vepres du Commun des Saints 7
DR10 -1.95 dB -16.16 dB 1:00 13-Vincent d'Indy - Les Vepres du Commun des Saints 8
DR15 -0.71 dB -21.52 dB 4:48 14-Albert Roussel - Prelude et Fughetta
DR11 -0.97 dB -15.59 dB 7:20 15-Charles Tournemire - Improvisation sur le Te Deum
DR15 -0.62 dB -23.08 dB 14:59 16-Jean Roger-Ducasse - Pastorale
DR11 -4.03 dB -20.61 dB 3:16 17-Jaques Ibert - Musette
DR11 -9.13 dB -26.40 dB 3:39 18-Arthur Honneger - Deux pieces por orgue. Fugue
DR10 -7.88 dB -23.52 dB 5:21 19-Arthur Honneger - Deux pieces pour orgue. Choral
DR12 -11.80 dB -28.58 dB 3:44 20-Darius Milhaud - Pastorale - Op 229
DR11 -0.54 dB -16.34 dB 5:26 21-Jean Langlais - Hymne d'actions de graces Te Deum
––––––––––––––––––––––––––––––––––––––––

Number of tracks: 21
Official DR value: DR11

Samplerate: 44100 Hz
Channels: 2
Bits per sample: 16
Bitrate: 542 kbps
Codec: WavPack
================================================================================

Arturo Sacchetti - Organ History: Erik Satie and French rarities of the XXth Century (2001)

Arturo Sacchetti - Organ History: Erik Satie and French rarities of the XXth Century (2001)

All thanks to original releaser

More interesting music in My Blog