Tags
Language
Tags
June 2024
Su Mo Tu We Th Fr Sa
26 27 28 29 30 31 1
2 3 4 5 6 7 8
9 10 11 12 13 14 15
16 17 18 19 20 21 22
23 24 25 26 27 28 29
30 1 2 3 4 5 6

Atlas - Blå Vardag (1979) {2022, Reissue}

Posted By: popsakov
Atlas - Blå Vardag (1979) {2022, Reissue}

Atlas - Blå Vardag (1979) {2022, Reissue}
EAC Rip | FLAC (Tracks) + Cue + m3u + Log ~ 444 Mb | MP3 CBR320 ~ 206 Mb
Full Scans | 00:57:11 | RAR 5% Recovery
Progressive Rock, Symphonic Rock, Jazz Rock | Transubstans Records #TRANS169

The 1979 album Blå Vardag by Atlas is in every way indispensable when looking at the progressive music history of Sweden. Their sole debut album is combining the almost Zamla -esque playfulness while infusing heavy organs, carefully refined guitar riffs and fantastic synthesized sound scapes. If you have any interest in instrumental 70's prog (and even the RIO scene), you're in for a real treat - this album is not to be overlooked! For fans of: Samla Mammas Manna, Camel and Yes.

***************

Track List:

01. Elisabiten [7:13]
02. Pa Gata (I & II) [14:11]
03. Bla Vardag [6:57]
04. Ganglat [2:53]
05. Den Vita Tranans Vag [7:19]
06. Bjornstorp (bonus track) [6:18]
07. Hemifran (bonus track) [7:51]
08. Sebastian (bonus track) [4:32]

Exact Audio Copy V1.6 from 23. October 2020

Отчёт EAC об извлечении, выполненном 10. января 2023, 0:08

Atlas / Bla Vardag

Дисковод: ATAPI iHAS122 F Adapter: 1 ID: 0

Режим чтения : Достоверность
Использование точного потока : Да
Отключение кэша аудио : Да
Использование указателей C2 : Нет

Коррекция смещения при чтении : 6
Способность читать области Lead-in и Lead-out : Нет
Заполнение пропущенных сэмплов тишиной : Да
Удаление блоков с тишиной в начале и конце : Нет
При вычислениях CRC использовались нулевые сэмплы : Да
Интерфейс : Встроенный Win32-интерфейс для Win NT/2000
Обработка зазоров : Добавлено к предыдущему треку

Выходной формат : Пользовательский кодировщик
Выбранный битрейт : 1024 kBit/s
Качество : Высокий
Добавление ID3-тега : Нет
Утилита сжатия : C:\Program Files (x86)\Exact Audio Copy\FLAC\FLAC.EXE
Дополнительные параметры : -6 -V -T "ARTIST=%artist%" -T "TITLE=%title%" -T "ALBUM=%albumtitle%" -T "DATE=%year%" -T "TRACKNUMBER=%tracknr%" -T "GENRE=%genre%" -T "COMMENT=%comment%" -T "BAND=%albuminterpret%" -T "ALBUMARTIST=%albuminterpret%" -T "COMPOSER=%composer%" %haslyrics%–tag-from-file=LYRICS="%lyricsfile%"%haslyrics% -T "DISCNUMBER=%cdnumber%" -T "TOTALDISCS=%totalcds%" -T "TOTALTRACKS=%numtracks%" %hascover%–picture="%coverfile%"%hascover% %source% -o %dest%


TOC извлечённого CD

Трек | Старт | Длительность | Начальный сектор | Конечный сектор
––––––––––––––––––––––––––––––––––-
1 | 0:00.00 | 7:12.37 | 0 | 32436
2 | 7:12.37 | 14:10.18 | 32437 | 96204
3 | 21:22.55 | 6:56.35 | 96205 | 127439
4 | 28:19.15 | 2:52.50 | 127440 | 140389
5 | 31:11.65 | 7:18.45 | 140390 | 173284
6 | 38:30.35 | 6:17.57 | 173285 | 201616
7 | 44:48.17 | 7:50.58 | 201617 | 236924
8 | 52:39.00 | 4:31.29 | 236925 | 257278


Трек 1

Имя файла E:\Torrents-seed\Atlas - 1979 - Bla Vardag\01 Elisabiten.wav

Длина предзазора 0:00:02.00

Пиковый уровень 97.7 %
Скорость извлечения 5.7 X
Качество трека 100.0 %
CRC теста 4C419CFB
CRC копии 4C419CFB
Трек не обнаружен в базе AccurateRip
Копирование… OK

Трек 2

Имя файла E:\Torrents-seed\Atlas - 1979 - Bla Vardag\02 Pa Gata (I & II).wav

Пиковый уровень 97.7 %
Скорость извлечения 7.2 X
Качество трека 99.9 %
CRC теста 232146E9
CRC копии 232146E9
Трек не обнаружен в базе AccurateRip
Копирование… OK

Трек 3

Имя файла E:\Torrents-seed\Atlas - 1979 - Bla Vardag\03 Bla Vardag.wav

Пиковый уровень 97.7 %
Скорость извлечения 8.4 X
Качество трека 100.0 %
CRC теста E2F2A054
CRC копии E2F2A054
Трек не обнаружен в базе AccurateRip
Копирование… OK

Трек 4

Имя файла E:\Torrents-seed\Atlas - 1979 - Bla Vardag\04 Ganglat.wav

Пиковый уровень 97.7 %
Скорость извлечения 7.9 X
Качество трека 100.0 %
CRC теста 29C4A962
CRC копии 29C4A962
Трек не обнаружен в базе AccurateRip
Копирование… OK

Трек 5

Имя файла E:\Torrents-seed\Atlas - 1979 - Bla Vardag\05 Den Vita Tranans Vag.wav

Пиковый уровень 97.7 %
Скорость извлечения 8.8 X
Качество трека 99.9 %
CRC теста DC6A8EC4
CRC копии DC6A8EC4
Трек не обнаружен в базе AccurateRip
Копирование… OK

Трек 6

Имя файла E:\Torrents-seed\Atlas - 1979 - Bla Vardag\06 Bjornstorp (bonus track).wav

Пиковый уровень 97.7 %
Скорость извлечения 9.8 X
Качество трека 100.0 %
CRC теста 139A34F9
CRC копии 139A34F9
Трек не обнаружен в базе AccurateRip
Копирование… OK

Трек 7

Имя файла E:\Torrents-seed\Atlas - 1979 - Bla Vardag\07 Hemifran (bonus track).wav

Пиковый уровень 97.7 %
Скорость извлечения 9.9 X
Качество трека 99.9 %
CRC теста 983E1EA4
CRC копии 983E1EA4
Трек не обнаружен в базе AccurateRip
Копирование… OK

Трек 8

Имя файла E:\Torrents-seed\Atlas - 1979 - Bla Vardag\08 Sebastian (bonus track).wav

Пиковый уровень 97.7 %
Скорость извлечения 10.4 X
Качество трека 100.0 %
CRC теста 1389E2CA
CRC копии 1389E2CA
Трек не обнаружен в базе AccurateRip
Копирование… OK


Ни одного трека нет в базе AccurateRip

Ошибок не произошло

Конец отчёта

==== Контрольная сумма отчёта C7CEF9B255D6F8B9E3FCE9AC29CEFB244167EF9F3DC5463A1E3D68704568289E ====

Atlas - Blå Vardag (1979) {2022, Reissue}


All thanks go to Condrаt

>>> My Blog <<<

DOWNLOAD: